Welcome Guest ( Log In | Register )

> Releases Upload / Добавление релизов

Добавить релиз тут / Click here to add release
Рекомендованные обменники / Recommended file shares

> Epica - The Quantum Enigma (B-Sides) [ep] (2020), Gothic/Symphonic Metal (D)
post Sep 14 2020, 16:44:05
Post #1

Мегаманьяк
***********
Group: Металариец
Posts: 1,501
Releases: 252
On Forums: 11 years 11 months
Thanks: 5238 time(s)
Russian Federation


(IMG:http://metalarea.org/images/audiocovers/2020_Sep/acov_tid341618_thumb.jpg)

*Artist: Epica
*Album: The Quantum Enigma (B-Sides) [ep]
*Year: 2020
*Genre: Gothic/Symphonic Metal
*Country: Netherlands (IMG:http://metalarea.org/forum/style_images/flags/Netherlands.png)
*Format: mp3@CBR320kbps
*Size: 102MB

Tracklist:
01. Memento 04:12
02. In All Conscience 05:06
03. Dreamscape 05:02
04. Banish Your Illusion 06:11
05. Mirage Of Verity 06:00
06. Canvas Of Life (Acoustic Version) 04:51
07. In All Conscience (Acoustic Version) 04:17
08. Dreamscape (Acoustic Version) 04:13
09. Natural Corruption (Acoustic Version) 04:49
******************************
Total playing time: 44:41

Preview 1
Preview 2

(IMG:http://metalarea.org/images/myspace.png)
Preview 5

Extended info


Lineup:
Mark Jansen Guitars (rhythm), Orchestrations, Vocals (harsh) (2003-present)
Coen Janssen Keyboards, Piano, Orchestrations (2003-present)
Simone Simons Vocals (2003-present)
Ariën van Weesenbeek Drums, Vocals (grunts, spoken word) (2007-present)
Isaac Delahaye Guitars (lead), Vocals (harsh) (2009-present)
Rob van der Loo Bass (2012-present)

Архивы

***FLAC-Rip***


Technical info
(IMG:http://metalarea.org/images/spectrogram/2020_Sep/01ebd2ba808c3ad1985d82813c5ef6a7.png)
Input File: 01-Memento.mp3
Channels : 2
Sample Rate : 44100
Precision : 16-bit
Duration : 00:04:12.05 = 11115229 samples = 18903.5 CDDA sectors
File Size : 10.1M
Bit Rate : 320k
Sample Encoding: MPEG audio (layer I, II or III)
Comments :
Title=Memento
Artist=Epica
Album=The Quantum Enigma (B-Sides)
Tracknumber=01
Year=2020
Genre=Symphonic Metal



Register


Go to the top of the page
  Insert nick Quick quote
+Quote Post
 
Start new topic
Replies (1 - 1)
post Sep 15 2020, 12:20:56
Post #2

Мегаманьяк
***********
Group: Металариец
Posts: 1,501
Releases: 252
On Forums: 11 years 11 months
Thanks: 5238 time(s)
Russian Federation


FLAC tracks
Register


Thanks:
Go to the top of the page
  Insert nick Quick quote
+Quote Post

Reply to this topicStart new topic
1 User(s) are reading this topic (1 Guests and 0 Anonymous Users)
0 Members:

 



- Lo-Fi Version Support form
Copyrights and abuse reports form
Time is now: 21st October 2020 - 14:29:52