Welcome Guest ( Log In | Register )

> Releases Upload / Добавление релизов

Добавить релиз тут / Click here to add release
Рекомендованные обменники / Recommended file shares

> Khors - Where The Word Acquires Eternity (2020), Atmospheric Black Metal (D)
post Sep 14 2020, 16:44:38
Post #1

Правь статус, ####!111
**************
Group: Металариец
Posts: 4,605
Releases: 1336
From: Brazil
On Forums: 8 years 7 months
Thanks: 49815 time(s)
Brazil


(IMG:http://metalarea.org/images/audiocovers/2020_Sep/acov_tid341619_thumb.jpg)

*Artist: Khors
*Album: Where The Word Acquires Eternity
*Year: 2020
*Genre: Atmospheric Black Metal
*Country: Ukraine (IMG:http://metalarea.org/forum/style_images/flags/Ukraine.png)
*Format: mp3@CBR320kbps
*Size: 117MB

Tracklist:
1. Starvation 05:09
2. Blissforsaken 07:10
3. Crystals of the Fall 06:52
4. The Sea of My Soul 05:35
5. ...and Life Shall Harvest One's Past 05:24
6. Up the Ladder to a Lance 06:20
7. The Mist (Let This Fog Devour a Snow) 06:46
8. Beneath the Keen Edge of Time 07:13
******************************
Total playing time: 50:29



Extended info
Ashen Dominion

KHORS speak: “Our 7th full-length “Where the Word Acquires Eternity” is a concept album dedicated to the events that took place in our native city of Kharkiv in the 30s of the XX century – the times called Renaissance of Ukrainian culture. By that time, in the end of 1920s, a residential multi-storey house was built by cooperative of writers. Externally the house was built in the shape of the letter С and was named Будинок “Слово” (a House “Word”). In most Slavic languages the word “Слово” means “Word”. A whole galaxy of Ukrainian writers, playwrights, poets, publicists, actors and public figures lived here until mass repressions against Ukrainian cultural figures began in 1933.


This tragic page of history is known as the “Executed Renaissance”. Almost all the residents of the House “Slovo” were subjected to repression: some were shot, some were exiled, and some committed suicide.
The walls of the writer's House “Slovo” still preserve the atmosphere of stone cells, which have become “custodies” for their residents.


Technical info
(IMG:http://metalarea.org/images/spectrogram/2020_Sep/2e8e58cdff631dbeb271fdc6d0447bbe.png)
Input File: 02 Blissforsaken.mp3
Channels : 2
Sample Rate : 44100
Precision : 16-bit
Duration : 00:07:10.08 = 18966396 samples = 32255.8 CDDA sectors
File Size : 17.5M
Bit Rate : 326k
Sample Encoding: MPEG audio (layer I, II or III)
Comments :
Title=Blissforsaken
Artist=Khors
Album=Where the Word Acquires Eternity
Tracknumber=2
Year=2020



Register


Go to the top of the page
  Insert nick Quick quote
+Quote Post
3 Pages V  < 1 2 3  
Start new topic
Replies (60 - 64)
post Yesterday, 06:29:52
Post #61

Котеги! Нравяцо котеги?
**************
Group: Металариец
Posts: 6,542
Releases: 0
From: Терра Инкогнита
On Forums: 10 years 3 months
Thanks: 2945 time(s)
Russian Federation


ЦИТАТА(vosmidesijatye @ 17th September 2020 - 21:32:48) *
Это как сравнить Роллс Ройс или Бентли

это Варгасио чтоли роллс ройс? (IMG:style_emoticons/default/1488.gif)
Варга, если с автомобилем сравнивать, то он ровно то, с чем фоткается, т.е. Нива. Вроде и говно, а не машина, но альтернативы за эти деньги нету


Thanks:
Go to the top of the page
  Insert nick Quick quote
+Quote Post
post Yesterday, 08:34:42
Post #62

Четыре Литра
****
Group: Металариец
Posts: 332
Releases: 5
On Forums: 13 years 5 months
Thanks: 277 time(s)
Russian Federation


ЦИТАТА(DeadViper @ Sep 15 2020, 18:41:28) *
превью понравилось, надеюсь альбом весь такой, пока все альбомы в лучшем виде (IMG:style_emoticons/default/27.gif)



Почему-то структурно напоминает НМ - Бiла Вежа. Но песня красивая, как и сам альбом.
Go to the top of the page
  Insert nick Quick quote
+Quote Post
post Yesterday, 09:09:04
Post #63

Мегаманьяк
***********
Group: Металариец
Posts: 1,775
Releases: 0
On Forums: 11 years 6 months
Thanks: 723 time(s)
Antarctica


ЦИТАТА(Aresson @ 18th September 2020 - 08:29:52) *
т.е. Нива. Вроде и говно, а не машина

Смотря с какой стороны посмотреть. С комфортом покорять автобаны на ней не будешь, но это отличный русский вездеход.
Нива - не роскошь, а средство передвижения.


Thanks:
(2) Ghostb, lafuma,
Go to the top of the page
  Insert nick Quick quote
+Quote Post
post Yesterday, 09:18:17
Post #64

Правь статус, ####!111
**************
Group: Металариец
Posts: 5,191
Releases: 0
From: Киев
On Forums: 12 years 4 months
Thanks: 4349 time(s)
Ukraine


ЦИТАТА(mittal @ Sep 18 2020, 11:09:04) *
Смотря с какой стороны посмотреть. С комфортом покорять автобаны на ней не будешь, но это отличный русский вездеход.
Нива - не роскошь, а средство передвижения.


Ну так он же и написал: что вроде бы и говно, но аналогов за эти деньги нет. Ясен хрен, что Acura MDX лучше, но она и стоит больше.


Thanks:
(2) Deze, Ghostb,
Go to the top of the page
  Insert nick Quick quote
+Quote Post
post Yesterday, 18:04:42
Post #65

Котеги! Нравяцо котеги?
**************
Group: Металариец
Posts: 6,542
Releases: 0
From: Терра Инкогнита
On Forums: 10 years 3 months
Thanks: 2945 time(s)
Russian Federation


ЦИТАТА(Exorcist @ 18th September 2020 - 11:18:17) *
Acura MDX

да и говна на ней покорять не поедешь)
Go to the top of the page
  Insert nick Quick quote
+Quote Post

3 Pages V  < 1 2 3
Reply to this topicStart new topic
2 User(s) are reading this topic (2 Guests and 0 Anonymous Users)
0 Members:

 



- Lo-Fi Version Support form
Copyrights and abuse reports form
Time is now: 19th September 2020 - 03:18:54