Welcome Guest ( Log In | Register )

> Releases Upload / Добавление релизов

Добавить релиз тут / Click here to add release
Рекомендованные обменники / Recommended file shares

> Sneglefeber - Sneglefeber (2020), Doom/Sludge Metal
post Sep 14 2020, 16:56:39
Post #1

Маньяк
**********
Group: Металариец
Posts: 1,432
Releases: 238
On Forums: 11 years 10 months
Thanks: 4946 time(s)
Russian Federation


(IMG:http://metalarea.org/images/audiocovers/2020_Sep/acov_tid341620_thumb.jpg)

*Artist: Sneglefeber
*Album: Sneglefeber
*Year: 2020
*Genre: Doom/Sludge Metal
*Country: Denmark (IMG:http://metalarea.org/forum/style_images/flags/Denmark.png)
*Format: mp3@CBR320kbps
*Size: 96MB

Tracklist:
01. Spawn of Grief 09:00
02. Fear of the Salt 12:44
03. Sneglefeber 08:32
04. Stankman 11:25
******************************
Total playing time: 41:41


Preview 2


Extended info


released September 4, 2020

Indspillet i Folkes garage april 2019.
Mixet af André Bugge i Mycelium Moss studio.
Mastereret af Emil Thomsen i ET studio.
Artwork af Søren Schjødt

Kørfirs Records 2020

***FLAC-Rip***


Technical info
(IMG:http://metalarea.org/images/spectrogram/2020_Sep/15e71615ae1d5ae9871fdc4a3ab0b4af.png)
Input File: 03-Sneglefeber.mp3
Channels : 2
Sample Rate : 44100
Precision : 16-bit
Duration : 00:08:32.11 = 22584007 samples = 38408.2 CDDA sectors
File Size : 20.5M
Bit Rate : 320k
Sample Encoding: MPEG audio (layer I, II or III)
Comments :
Title=Sneglefeber
Artist=Sneglefeber
Album=Sneglefeber
Tracknumber=3
Year=2020
Genre=Doom / Sludge Metal



Register


Go to the top of the page
  Insert nick Quick quote
+Quote Post
 
Start new topic
Replies (1 - 1)
post Sep 15 2020, 12:21:22
Post #2

Маньяк
**********
Group: Металариец
Posts: 1,432
Releases: 238
On Forums: 11 years 10 months
Thanks: 4946 time(s)
Russian Federation


FLAC tracks
Register


Thanks:
(1) Olethros,
Go to the top of the page
  Insert nick Quick quote
+Quote Post

Reply to this topicStart new topic
1 User(s) are reading this topic (1 Guests and 0 Anonymous Users)
0 Members:

 



- Lo-Fi Version Support form
Copyrights and abuse reports form
Time is now: 20th September 2020 - 02:57:49