Welcome Guest ( Log In | Register )

> Releases Upload / Добавление релизов

Добавить релиз тут / Click here to add release
Рекомендованные обменники / Recommended file shares

> Mh Ov - Cosmogony (2020), Atmospheric Black Metal
post Sep 14 2020, 18:26:50
Post #1

MDM-Thrash Metal
**************
Group: Металариец
Posts: 9,850
Releases: 1048
From: Одесса
On Forums: 13 years 1 month
Thanks: 25944 time(s)
Ukraine


(IMG:http://metalarea.org/images/audiocovers/2020_Sep/acov_tid341621_thumb.jpg)

*Artist: Mh Ov
*Album: Cosmogony
*Year: 2020
*Genre: Atmospheric Black Metal
*Country: Greece (IMG:http://metalarea.org/forum/style_images/flags/Greece.png)
*Format: mp3@CBR320kbps
*Size: 100MB

Tracklist:
1. ...and There Was Silence and Darkness 03:00 instrumental
2. Singularity 07:32 instrumental
3. The Creation 05:57
4. Energy of the Cosmos 07:14
5. String Theory Landscape 08:24 instrumental
6. Planck Epoch 09:10 instrumental
7. Heosphoros 02:45
******************************
Total playing time: 44:02



Technical info
(IMG:http://metalarea.org/images/spectrogram/2020_Sep/9de26553b8c5a3f48f369c352a8c48d8.png)
Input File: MH OV - Cosmogony - 02 Singularity.mp3
Channels : 2
Sample Rate : 44100
Precision : 16-bit
Duration : 00:07:32.10 = 19937610 samples = 33907.5 CDDA sectors
File Size : 18.2M
Bit Rate : 322k
Sample Encoding: MPEG audio (layer I, II or III)
Comments :
Title=Singularity
Artist=MH OV
Album=Cosmogony
Tracknumber=2
Year=2020



Register


Go to the top of the page
  Insert nick Quick quote
+Quote Post
 
Start new topic
Replies (1 - 1)
post Sep 16 2020, 14:57:27
Post #2

Маньяк
**********
Group: Металариец
Posts: 1,378
Releases: 3
From: Новороссия
On Forums: 14 years 7 months
Thanks: 766 time(s)
Russian Federation


До Darkspace не дотягивают, слишком зефирно, совершенно не чувствуется ни сингулярность, ни тёмная энергия космоса.
Go to the top of the page
  Insert nick Quick quote
+Quote Post

Reply to this topicStart new topic
2 User(s) are reading this topic (2 Guests and 0 Anonymous Users)
0 Members:

 



- Lo-Fi Version Support form
Copyrights and abuse reports form
Time is now: 19th September 2020 - 04:46:57