Welcome Guest ( Log In | Register )

> Releases Upload / Добавление релизов

Добавить релиз тут / Click here to add release
Рекомендованные обменники / Recommended file shares

 
Reply to this topicStart new topic
> Goatworshipper - Blackgoat Harshnoise (2007), Black Metal/Noise
post Sep 14 2020, 19:11:15
Post #1

Маньяк
**********
Group: Металариец
Posts: 1,392
Releases: 342
From: Масква
On Forums: 14 years 11 months
Thanks: 3721 time(s)
Russian Federation


(IMG:https://metalarea.org/images/audiocovers/2020_Sep/acov_tid341622_thumb.JPG)

*Artist: Goatworshipper
*Album: Blackgoat Harshnoise
*Year: 2007
*Genre: Black Metal/Noise
*Country: Japan (IMG:https://metalarea.org/forum/style_images/flags/Japan.png)
*Format: mp3@VBR216kbps
*Size: 99MB

Tracklist:
1. Ave Satanas 11:15
2. The Four Crown Princess Of Hell 08:51
3. The Blackgoat Mass 06:05
4. Bornless Ritual 12:26
5. Glavigula Salomonis 06:08
6. The Invocation 07:32
7. Das Panbaphomerion / Baphomet 11:56
******************************
Total playing time: 1:04:13



Technical info
(IMG:https://metalarea.org/images/spectrogram/2020_Sep/f9f6c82ec9b8254b6c211635d68ccda1.png)
Input File: 02-goatworshipper-the_four_crown_princess_of_hell-cor.mp3
Channels : 2
Sample Rate : 44100
Precision : 16-bit
Duration : 00:08:51.12 = 23422436 samples = 39834.1 CDDA sectors
File Size : 14.4M
Bit Rate : 217k
Sample Encoding: MPEG audio (layer I, II or III)
Comments :
Title=The Four Crown Princess Of Hel
Artist=Goatworshipper
Album=Goatworshipper CD
Tracknumber=2
Year=2007
Genre=138



Register


Go to the top of the page
  Insert nick Quick quote
+Quote Post

Reply to this topicStart new topic
2 User(s) are reading this topic (2 Guests and 0 Anonymous Users)
0 Members:

 



- Lo-Fi Version Support form
Copyrights and abuse reports form
Time is now: 19th September 2020 - 03:41:15