Welcome Guest ( Log In | Register )

> Releases Upload / Добавление релизов

Добавить релиз тут / Click here to add release
Рекомендованные обменники / Recommended file shares

 
Reply to this topicStart new topic
> Heat Affected Zone - Limbo Bar (2020), Heavy/Thrash Metal
post Sep 14 2020, 20:56:23
Post #1

MDM-Thrash Metal
**************
Group: Металариец
Posts: 9,850
Releases: 1048
From: Одесса
On Forums: 13 years 1 month
Thanks: 25944 time(s)
Ukraine


(IMG:http://metalarea.org/images/audiocovers/2020_Sep/acov_tid341623_thumb.jpg)

*Artist: Heat Affected Zone
*Album: Limbo Bar
*Year: 2020
*Genre: Heavy/Thrash Metal
*Country: Poland (IMG:http://metalarea.org/forum/style_images/flags/Poland.png)
*Format: mp3@CBR320kbps
*Size: 110MB

Tracklist:
01. Something In 02:24
02. Mad Town 05:41
03. Empty Cup 03:43
04. Thoughtless One 03:23
05. Berserker 05:22
06. Ballada 04:25
07. Dead Nightingale 06:20
08. Ayrton 06:55
09. Nevermore 08:35
******************************
Total playing time: 46:48


(IMG:http://metalarea.org/images/youtube.png)

Extended info
Mate Bass, Vocals (2014-present)
Patryk Pakosz Drums (2014-present)
See also: Bullet Rage
Michał Witwicki Guitars (lead) (2014-present)
Konrad Guettler Guitars (rhythm) (2014-present)


Technical info
(IMG:http://metalarea.org/images/spectrogram/2020_Sep/8409cc14695fb6dc503060e74cb1624c.png)
Input File: 02. Mad Town.mp3
Channels : 2
Sample Rate : 44100
Precision : 16-bit
Duration : 00:05:40.76 = 15027648 samples = 25557.2 CDDA sectors
File Size : 13.9M
Bit Rate : 327k
Sample Encoding: MPEG audio (layer I, II or III)
Comments :
Title=Mad Town
Artist=Heat Affected Zone
Album=Limbo Bar
Tracknumber=2/9
Year=2020
Discnumber=1/1



Register


Go to the top of the page
  Insert nick Quick quote
+Quote Post

Reply to this topicStart new topic
2 User(s) are reading this topic (2 Guests and 0 Anonymous Users)
0 Members:

 



- Lo-Fi Version Support form
Copyrights and abuse reports form
Time is now: 19th September 2020 - 02:46:18