Welcome Guest ( Log In | Register )

> Releases Upload / Добавление релизов

Добавить релиз тут / Click here to add release
Рекомендованные обменники / Recommended file shares

> Awaken The Misogynist - Abuse Of Consumption [ep] (2020), Brutal Death Metal
post Sep 14 2020, 21:32:34
Post #1

MDM-Thrash Metal
**************
Group: Металариец
Posts: 9,850
Releases: 1048
From: Одесса
On Forums: 13 years 1 month
Thanks: 25992 time(s)
Ukraine


(IMG:http://metalarea.org/images/audiocovers/2020_Sep/acov_tid341624_thumb.jpg)

*Artist: Awaken The Misogynist
*Album: Abuse Of Consumption [ep]
*Year: 2020
*Genre: Brutal Death Metal
*Country: International (IMG:http://metalarea.org/forum/style_images/flags/International.png)
*Format: mp3@CBR320kbps
*Size: 24MB

Tracklist:
1. Leeched 02:02
2. Infinite Regression 03:08
3. Abuse of Consumption 03:04
******************************
Total playing time: 8:14




Extended info
Joe Mortimer Bass (2019-present)
See also: Colpocleisis, Crepitation, ex-Cancerous Womb, ex-Neuroma, ex-Sadistic Undertorture, ex-Corrupt Moral Altar (live), ex-Exhumation (live), ex-Intravenous Contamination (live), ex-Kastrated (live), ex-Splattered (live), ex-Ogun (live)
Guido Wyss Drums (2019-present)
See also: Enigmatik, ex-DarkRise, ex-Near Death Condition, ex-Derrick
Wilson Ng Guitars (2019-present)
See also: Dimensional Decay, Facelift Deformation, Incestuous Impregnation, Vermicular Incubation, Virginity Fraud, ex-Cryogenic Defilement, ex-Vicious Intent
Livio Wellinger Vocals (2019-present)
See also: Bodysnatch, Secret Mutilation, Slamentation, ex-Corpus Domini
Jameson Blomgren Vocals (2019-present)
See also: Orders of Infinity

Hong Kong / United Kingdom / United States / Switzerland


Technical info
(IMG:http://metalarea.org/images/spectrogram/2020_Sep/103820b455693c734221400e55931878.png)
Input File: 02. Infinite Regression.mp3
Channels : 2
Sample Rate : 44100
Precision : 16-bit
Duration : 00:03:08.15 = 8297283 samples = 14111 CDDA sectors
File Size : 7.97M
Bit Rate : 339k
Sample Encoding: MPEG audio (layer I, II or III)
Comments :
Title=Infinite Regression
Artist=Awaken the Misogynist
Album=Abuse of Consumption
Tracknumber=2
Year=2020



Register


Go to the top of the page
  Insert nick Quick quote
+Quote Post
 
Start new topic
Replies (1 - 2)
post Sep 15 2020, 07:56:13
Post #2

Семь Литров
*******
Group: Металариец
Posts: 719
Releases: 1
From: APATIN, SERBIA, АПАТИН, СЕРБИЯ
On Forums: 12 years 10 months
Thanks: 1274 time(s)



Flac

Register


Go to the top of the page
  Insert nick Quick quote
+Quote Post
post Yesterday, 19:00:58
Post #3

Group: Дух
Posts: 4
Releases: 0
On Forums: 3 years 4 days
Thanks: 0 time(s)
Unknown


let me guess, anti-woman metal?
Go to the top of the page
  Insert nick Quick quote
+Quote Post

Reply to this topicStart new topic
2 User(s) are reading this topic (2 Guests and 0 Anonymous Users)
0 Members:

 



- Lo-Fi Version Support form
Copyrights and abuse reports form
Time is now: 20th September 2020 - 02:18:19