Welcome Guest ( Log In | Register )

> Releases Upload / Добавление релизов

Добавить релиз тут / Click here to add release
Рекомендованные обменники / Recommended file shares

> Consumption - Recursive Definitions Of Suppuration (2020), Old School Death Metal
post Sep 15 2020, 03:54:11
Post #1

Правь статус, ####!111
**************
Group: Металариец
Posts: 23,148
Releases: 16149
From: Г.Харьков
On Forums: 8 years 4 months
Thanks: 300495 time(s)
Unknown


(IMG:http://metalarea.org/images/audiocovers/2020_Sep/acov_tid341626_thumb.jpg)

*Artist: Consumption
*Album: Recursive Definitions Of Suppuration
*Year: 2020
*Genre: Old School Death Metal
*Country: Sweden (IMG:http://metalarea.org/forum/style_images/flags/Sweden.png)
*Format: mp3@CBR320kbps
*Size: 65MB

Tracklist:
01. Fermented Tissue
02. Infectus Exteriorisation
03. Suppuration
04. Rigor Mortis
05. Consumption
06. Splenium Corporis Callosi
07. Fragmentum
08. Ictus Cordis
******************************
Total playing time: 28:44




Extended info
Håkan Stuvemark: Vocals, guitars and bass.
Jon Skäre: Drums.



Technical info
(IMG:http://metalarea.org/images/spectrogram/2020_Sep/a70a49874898c8f2c903b947c20d8576.png)
Input File: 07. Fragmentum.mp3
Channels : 2
Sample Rate : 44100
Precision : 16-bit
Duration : 00:03:42.68 = 9820320 samples = 16701.2 CDDA sectors
File Size : 8.91M
Bit Rate : 320k
Sample Encoding: MPEG audio (layer I, II or III)
Comments :
Title=Fragmentum
Artist=Consumption
Album=Recursive Definitions of Suppuration
Tracknumber=07
Year=2020
Genre=OSDM



Register


Go to the top of the page
  Insert nick Quick quote
+Quote Post
 
Start new topic
Replies (1 - 1)
post Sep 15 2020, 12:56:00
Post #2

Семь Литров
*******
Group: Металариец
Posts: 721
Releases: 1
From: APATIN, SERBIA, АПАТИН, СЕРБИЯ
On Forums: 12 years 10 months
Thanks: 1274 time(s)



Flac

Register


Go to the top of the page
  Insert nick Quick quote
+Quote Post

Reply to this topicStart new topic
1 User(s) are reading this topic (1 Guests and 0 Anonymous Users)
0 Members:

 



- Lo-Fi Version Support form
Copyrights and abuse reports form
Time is now: 20th September 2020 - 11:26:31