Welcome Guest ( Log In | Register )

> Releases Upload / Добавление релизов

Добавить релиз тут / Click here to add release
Рекомендованные обменники / Recommended file shares

> Nar Mattaru - The Underground Chapel Of Deformation (2019), Occult Death Metal
post Sep 15 2020, 04:13:17
Post #1

Правь статус, ####!111
**************
Group: Металариец
Posts: 23,148
Releases: 16149
From: Г.Харьков
On Forums: 8 years 4 months
Thanks: 300510 time(s)
Unknown


(IMG:http://metalarea.org/images/audiocovers/2020_Sep/acov_tid341627_thumb.jpg)

*Artist: Nar Mattaru
*Album: The Underground Chapel Of Deformation
*Year: 2019
*Genre: Occult Death Metal
*Country: Chile (IMG:http://metalarea.org/forum/style_images/flags/Chile.png)
*Format: mp3@CBR320kbps
*Size: 130MB

Tracklist:
1. Circle of Death 12:01
2. Forgotten Alliance...Betrayed Creation 08:12
3. The Chosen Ones of Chaos 09:02
4. Uttuk Xul (Ancestral Ritual) 07:04
5. Inside the Crystal Palace 06:23
6. Enslaved to the Inferior Universe 08:15
7. In the Path of the Eternal Abys of Time 06:43
******************************
Total playing time: 57:40



Extended info
Francisco Bravo Bass, Guitars
See also: ex-Dominus, ex-Denying Nazarene, ex-Dominus Xul
Andrés González Drums
See also: 9th Entity, Nightmares of the Souls, Silentium CH, ex-Dominus, ex-Anima Inmortalis, ex-Dominus Xul, ex-Thornafire
Carlos Artarys Vocals
See also: Kur, ex-From the Darkness



Technical info
(IMG:http://metalarea.org/images/spectrogram/2020_Sep/09865bb784d4ad86036d93d3ec660c45.png)
Input File: 04 - Uttuk Xul (Ancestral Ritual).mp3
Channels : 2
Sample Rate : 44100
Precision : 16-bit
Duration : 00:07:06.82 = 18822850 samples = 32011.6 CDDA sectors
File Size : 17.1M
Bit Rate : 320k
Sample Encoding: MPEG audio (layer I, II or III)
Comments :
Title=Uttuk Xul (Ancestral Ritual)
Artist=Nar Mattaru
Album=The Underground Chapel of Deformation
Tracknumber=4
Year=2019
Genre=Death Metal



Register


Go to the top of the page
  Insert nick Quick quote
+Quote Post
 
Start new topic
Replies (1 - 1)
post Yesterday, 20:50:31
Post #2

Два Литра
**
Group: Завсегдатай
Posts: 123
Releases: 0
On Forums: 10 years 9 months
Thanks: 22 time(s)
Russian Federation


Этих товарищей интересно послушать.
Go to the top of the page
  Insert nick Quick quote
+Quote Post

Reply to this topicStart new topic
2 User(s) are reading this topic (1 Guests and 1 Anonymous Users)
0 Members:

 



- Lo-Fi Version Support form
Copyrights and abuse reports form
Time is now: 20th September 2020 - 12:24:59