Welcome Guest ( Log In | Register )

> Releases Upload / Добавление релизов

Добавить релиз тут / Click here to add release
Рекомендованные обменники / Recommended file shares

 
Reply to this topicStart new topic
> Depersonalisation - Absence Of Self (2020), Depressive Black Metal
post Sep 15 2020, 04:31:21
Post #1

Правь статус, ####!111
**************
Group: Металариец
Posts: 23,564
Releases: 16492
From: Г.Харьков
On Forums: 8 years 5 months
Thanks: 311134 time(s)
Unknown


(IMG:http://metalarea.org/images/audiocovers/2020_Sep/acov_tid341628_thumb.jpg)

*Artist: Depersonalisation
*Album: Absence Of Self
*Year: 2020
*Genre: Depressive Black Metal
*Country: United Kingdom (IMG:http://metalarea.org/forum/style_images/flags/United%20Kingdom.png)
*Format: mp3@CBR320kbps
*Size: 101MB

Tracklist:
1. The Self Observer 05:24
2. Anger Rising from the Numbness 10:45
3. Stagnating Emotions 06:20
4. Plagued by Nightmares 06:24
5. Cold Departure 05:28
6. Somewhere Else 08:44
7. Residual Existence 01:05
******************************
Total playing time: 44:10



Extended info
ICD F48.1 All instruments, Vocals, Lyrics
See also: Nebula Mori, Derelikt Dimension, Psuchagōgoi, Shargoth, ex-Lost Human


Technical info
(IMG:http://metalarea.org/images/spectrogram/2020_Sep/fa3926487df82ce1725e3b7b63e67f9b.png)
Input File: 04 - Plagued by Nightmares.mp3
Channels : 2
Sample Rate : 44100
Precision : 16-bit
Duration : 00:06:24.57 = 16959669 samples = 28843 CDDA sectors
File Size : 15.5M
Bit Rate : 323k
Sample Encoding: MPEG audio (layer I, II or III)
Comments :
Title=Plagued by Nightmares
Artist=Depersonalisation
Album=Absence of Self
Tracknumber=4
Year=2020



Register


Go to the top of the page
  Insert nick Quick quote
+Quote Post

Reply to this topicStart new topic
1 User(s) are reading this topic (1 Guests and 0 Anonymous Users)
0 Members:

 



- Lo-Fi Version Support form
Copyrights and abuse reports form
Time is now: 29th October 2020 - 17:56:47