Welcome Guest ( Log In | Register )

> Releases Upload / Добавление релизов

Добавить релиз тут / Click here to add release
Рекомендованные обменники / Recommended file shares

 
Reply to this topicStart new topic
> Resurrections - Spewed Forth From Hell (2020), Thrash/Death Metal
post Sep 15 2020, 04:47:57
Post #1

Правь статус, ####!111
**************
Group: Металариец
Posts: 23,450
Releases: 16401
From: Г.Харьков
On Forums: 8 years 5 months
Thanks: 308716 time(s)
Unknown


(IMG:http://metalarea.org/images/audiocovers/2020_Sep/acov_tid341629_thumb.jpg)

*Artist: Resurrections
*Album: Spewed Forth From Hell
*Year: 2020
*Genre: Thrash/Death Metal
*Country: New Zealand (IMG:http://metalarea.org/forum/style_images/flags/New%20Zealand.png)
*Format: mp3@CBR320kbps
*Size: 112MB

Tracklist:
1. At the Gates
2. Spewed Forth from Hell
3. Haunting the Night
4. Deaths Rejected Resurrections
5. A Nocturnal Feast
6. Awakening an Ancient One
7. The Nocturnal Beast
8. Blunting the Reapers Scythe
9. Departure
10. Beyond the Gates of Life and Death
******************************
Total playing time: 48:49



Extended info
All music and lyrics property of Jeremy Giles


Technical info
(IMG:http://metalarea.org/images/spectrogram/2020_Sep/c750d57bb545994f7004c3b41f6fce53.png)
Input File: 04 - Deaths Rejected Resurrections.mp3
Channels : 2
Sample Rate : 44100
Precision : 16-bit
Duration : 00:06:33.90 = 17370814 samples = 29542.2 CDDA sectors
File Size : 15.9M
Bit Rate : 322k
Sample Encoding: MPEG audio (layer I, II or III)
Comments :
Title=Deaths Rejected Resurrections
Artist=Resurrections
Album=Spewed Forth from Hell
Tracknumber=4
Year=2020



Register


Go to the top of the page
  Insert nick Quick quote
+Quote Post

Reply to this topicStart new topic
1 User(s) are reading this topic (1 Guests and 0 Anonymous Users)
0 Members:

 



- Lo-Fi Version Support form
Copyrights and abuse reports form
Time is now: 20th October 2020 - 17:56:41