Welcome Guest ( Log In | Register )

> Releases Upload / Добавление релизов

Добавить релиз тут / Click here to add release
Рекомендованные обменники / Recommended file shares

 
Reply to this topicStart new topic
> Prockq - Mutando La Piel (2020), Groove Metal
post Sep 15 2020, 06:10:45
Post #1

Правь статус, ####!111
**************
Group: Металариец
Posts: 23,148
Releases: 16149
From: Г.Харьков
On Forums: 8 years 4 months
Thanks: 300503 time(s)
Unknown


(IMG:http://metalarea.org/images/audiocovers/2020_Sep/acov_tid341631_thumb.jpg)

*Artist: Prockq
*Album: Mutando La Piel
*Year: 2020
*Genre: Groove Metal
*Country: Costa Rica (IMG:http://metalarea.org/forum/style_images/flags/Costa%20Rica.png)
*Format: mp3@CBR320kbps
*Size: 76MB

Tracklist:
1. Pulverizar
2. Criminal
3. El Rapto
4. Mutando la Piel
5. En el Fango
6. Reciclando Mierda
******************************
Total playing time: 32:46




Extended info
Diego Bolaños Drums
Mauricio Alvarado Vocals
See also: Dusk
Daniel Arroyo Bass, Vocals (backing) (2015-present)
See also: Humanizer
Federico Valerin Guitars (lead) (2016-present)



Technical info
(IMG:http://metalarea.org/images/spectrogram/2020_Sep/1af94d75890dc575155ac7b09cabcaed.png)
Input File: 04 - Mutando la Piel.mp3
Channels : 2
Sample Rate : 44100
Precision : 16-bit
Duration : 00:06:26.09 = 17026349 samples = 28956.4 CDDA sectors
File Size : 15.6M
Bit Rate : 323k
Sample Encoding: MPEG audio (layer I, II or III)
Comments :
Title=Mutando la Piel
Artist=PROCKQ
Album=Mutando la Piel
Tracknumber=4
Year=2020



Register


Go to the top of the page
  Insert nick Quick quote
+Quote Post

Reply to this topicStart new topic
1 User(s) are reading this topic (1 Guests and 0 Anonymous Users)
0 Members:

 



- Lo-Fi Version Support form
Copyrights and abuse reports form
Time is now: 20th September 2020 - 12:07:38