Welcome Guest ( Log In | Register )

> Releases Upload / Добавление релизов

Добавить релиз тут / Click here to add release
Рекомендованные обменники / Recommended file shares

 
Reply to this topicStart new topic
> Operation Meatgrinder - Doom Noise (2020), Death Metal/Instrumental
post Sep 15 2020, 06:42:40
Post #1

MDM-Thrash Metal
**************
Group: Металариец
Posts: 9,850
Releases: 1048
From: Одесса
On Forums: 13 years 1 month
Thanks: 25994 time(s)
Ukraine


(IMG:http://metalarea.org/images/audiocovers/2020_Sep/acov_tid341632_thumb.jpg)

*Artist: Operation Meatgrinder
*Album: Doom Noise
*Year: 2020
*Genre: Death Metal/Instrumental
*Country: Canada (IMG:http://metalarea.org/forum/style_images/flags/Canada.png)
*Format: mp3@CBR320kbps
*Size: 50MB

Tracklist:
1. The Symptoms of a Dying Civilization
2. Petit Papillon Griche
3. An Ever Repeating Nightmare
4. Papa Sucre
5. Complicated Improvisation
6. Doom Noise
7. Osheaga Chimpout
8. When Mom Find Cum Jar
9. Final Marinade
******************************
Total playing time: 20:36



(IMG:http://metalarea.org/images/youtube.png)

Technical info
(IMG:http://metalarea.org/images/spectrogram/2020_Sep/53c02ff70820fc8d701c780f275b6ff1.png)
Input File: Operation Meatgrinder - Doom Noise - 02 Petit Papillon Griché.mp3
Channels : 2
Sample Rate : 44100
Precision : 16-bit
Duration : 00:01:48.07 = 4766063 samples = 8105.55 CDDA sectors
File Size : 4.44M
Bit Rate : 329k
Sample Encoding: MPEG audio (layer I, II or III)
Comments :
Title=Petit Papillon Griché
Artist=Operation Meatgrinder
Album=Doom Noise
Tracknumber=2
Year=2020



Register


Go to the top of the page
  Insert nick Quick quote
+Quote Post

Reply to this topicStart new topic
1 User(s) are reading this topic (1 Guests and 0 Anonymous Users)
0 Members:

 



- Lo-Fi Version Support form
Copyrights and abuse reports form
Time is now: 20th September 2020 - 11:23:05