Welcome Guest ( Log In | Register )

> Releases Upload / Добавление релизов

Добавить релиз тут / Click here to add release
Рекомендованные обменники / Recommended file shares

> Hidden Time - Survival Of The Beast (2020), Melodic Death/Thrash/Groove Metal (D4)
post Sep 15 2020, 06:51:55
Post #1

Правь статус, ####!111
**************
Group: Металариец
Posts: 23,148
Releases: 16149
From: Г.Харьков
On Forums: 8 years 4 months
Thanks: 300508 time(s)
Unknown


(IMG:http://metalarea.org/images/audiocovers/2020_Sep/acov_tid341633_thumb.jpg)

*Artist: Hidden Time
*Album: Survival Of The Beast
*Year: 2020
*Genre: Melodic Death/Thrash/Groove Metal
*Country: Russian Federation (IMG:http://metalarea.org/forum/style_images/flags/Russian%20Federation.png)
*Format: mp3@CBR320kbps
*Size: 132MB

Tracklist:
1. Enter the Beastiarium 01:04
2. The Beast Trilogy: Ch. 1, The Man 03:58
3. The Beast Trilogy: Ch. 2, The Beast 03:06
4. The Beast Trilogy: Ch. 3, The Resurrected 05:56
5. Vain Purification 03:35
6. God of the Sandbox 04:19
7. Phoenix 03:57
8. My Own Religion 02:59
9. Ether Breather 04:15
10. A New Dawn 03:08
11. The Obelisk 05:15
12. Frantic 03:59
13. Feed Your Demons 02:38
14. Epilogue: Birth of a New Beast 06:35
******************************
Total playing time: 54:44

Preview 1

Extended info
Ilya Poygin Bass
Alexander Khripunov Drums
See also: ex-Neotruth
Vasiliy Makridin Guitars (formerly Vocals)
Mikhail Korneev Vocals, Guitars (2006-present)
See also: ex-Edenbeast, ex-Neotruth
Sergey Panov Bass (2012-present)



Technical info
(IMG:http://metalarea.org/images/spectrogram/2020_Sep/e660e5d68c3c4241013870aa61973a3c.png)
Input File: 06 God of the Sandbox.mp3
Channels : 2
Sample Rate : 44100
Precision : 16-bit
Duration : 00:04:19.44 = 11441128 samples = 19457.7 CDDA sectors
File Size : 10.8M
Bit Rate : 334k
Sample Encoding: MPEG audio (layer I, II or III)
Comments :
Title=God of the Sandbox
Artist=Hidden Time
Album=Survival of the Beast
Tracknumber=6/14
Year=2020-20-20
Discnumber=1/1



Register


Go to the top of the page
  Insert nick Quick quote
+Quote Post
 
Start new topic
Replies (1 - 1)
post Sep 16 2020, 12:12:01
Post #2

Два Литра
**
Group: Завсегдатай
Posts: 153
Releases: 0
From: Москва
On Forums: 13 years 10 months
Thanks: 41 time(s)
Russian Federation


Довольно мелодичный разноплановый материал от туляков, слушать можно неоднократно.
Go to the top of the page
  Insert nick Quick quote
+Quote Post

Reply to this topicStart new topic
1 User(s) are reading this topic (1 Guests and 0 Anonymous Users)
0 Members:

 



- Lo-Fi Version Support form
Copyrights and abuse reports form
Time is now: 20th September 2020 - 12:21:57