Welcome Guest ( Log In | Register )

> Releases Upload / Добавление релизов

Добавить релиз тут / Click here to add release
Рекомендованные обменники / Recommended file shares

 
Reply to this topicStart new topic
> Necrotized Flesh - Epilogue (2020), Black Metal
post Sep 15 2020, 07:31:45
Post #1

Правь статус, ####!111
**************
Group: Металариец
Posts: 23,148
Releases: 16149
From: Г.Харьков
On Forums: 8 years 4 months
Thanks: 300501 time(s)
Unknown


(IMG:http://metalarea.org/images/audiocovers/2020_Sep/acov_tid341634_thumb.jpg)

*Artist: Necrotized Flesh
*Album: Epilogue
*Year: 2020
*Genre: Black Metal
*Country: United States (IMG:http://metalarea.org/forum/style_images/flags/United%20States.png)
*Format: mp3@CBR320kbps
*Size: 116MB

Tracklist:
1. Battle of Doomsday I 01:00
2. Parasite 04:09
3. Abhorrent Abomination 04:28
4. Supernova 04:06
5. Omen 05:00
6. The Burning Gates of Babylon 04:27
7. Cascading 05:25
8. Winter 04:43
9. Never 03:34
10. Mental Warfare 04:58
11. Fountain of Hatred 05:58
12. Battle of Doomsday II 01:55
******************************
Total playing time: 49:43



Extended info
Brett Grimm Bass, Drum programming, Guitars (rhythm), Keyboards
See also: Barbiturate, Resound, Shadowgate, ex-Cliffs of Insanity, ex-Divine Burning Angels, ex-Wrath of Mot, ex-Korotory, ex-Utopia Banished
Matt Scriva Guitars (lead)
See also: Barbiturate, Resound, Shadowgate, ex-Cliffs of Insanity, ex-Korotory
Kenny Kuehn Guitars (lead)
See also: Shadowgate, ex-Anaka
Charles Deep Vocals
See also: Barbiturate



Technical info
(IMG:http://metalarea.org/images/spectrogram/2020_Sep/199eb75301606e248611f47317a89a87.png)
Input File: 05 Omen.mp3
Channels : 2
Sample Rate : 44100
Precision : 16-bit
Duration : 00:05:00.48 = 13251036 samples = 22535.8 CDDA sectors
File Size : 12.2M
Bit Rate : 325k
Sample Encoding: MPEG audio (layer I, II or III)
Comments :
Title=Omen
Artist=Necrotized Flesh
Album=Epilogue
Tracknumber=5/12
Year=2020-20-20
Discnumber=1/1



Register


Go to the top of the page
  Insert nick Quick quote
+Quote Post

Reply to this topicStart new topic
1 User(s) are reading this topic (1 Guests and 0 Anonymous Users)
0 Members:

 



- Lo-Fi Version Support form
Copyrights and abuse reports form
Time is now: 20th September 2020 - 11:33:42