Welcome Guest ( Log In | Register )

> Releases Upload / Добавление релизов

Добавить релиз тут / Click here to add release
Рекомендованные обменники / Recommended file shares

> Necrotized Flesh - Embrace The Great Malaise [compilation] (2020), Black Metal
post Sep 15 2020, 07:54:43
Post #1

Правь статус, ####!111
**************
Group: Металариец
Posts: 23,450
Releases: 16401
From: Г.Харьков
On Forums: 8 years 5 months
Thanks: 308742 time(s)
Unknown


(IMG:http://metalarea.org/images/audiocovers/2020_Sep/acov_tid341635_thumb.jpg)

*Artist: Necrotized Flesh
*Album: Embrace The Great Malaise [compilation]
*Year: 2020
*Genre: Black Metal
*Country: United States (IMG:http://metalarea.org/forum/style_images/flags/United%20States.png)
*Format: mp3@CBR320kbps
*Size: 191MB

Tracklist:
1. Murder 06:50
2. Enough 03:29
3. Underneath 05:37
4. Obscene 03:53
5. Orbs 03:57
6. Haze 03:46
7. Pepper 04:31
8. Inflicted 07:47
9. Vacancy 03:36
10. Bound 05:38
11. Mo'fucka 05:23
12. No Escape 04:05
13. Nightmare 06:01
14. Trifecta 04:49
15. Whirling Dervish 03:56
16. Without Control 07:55
******************************
Total playing time: 1:21:13




Extended info
Brett Grimm Bass, Drum programming, Guitars (rhythm), Keyboards
See also: Barbiturate, Resound, Shadowgate, ex-Cliffs of Insanity, ex-Divine Burning Angels, ex-Wrath of Mot, ex-Korotory, ex-Utopia Banished
Matt Scriva Guitars (lead)
See also: Barbiturate, Resound, Shadowgate, ex-Cliffs of Insanity, ex-Korotory
Kenny Kuehn Guitars (lead)
See also: Shadowgate, ex-Anaka
Charles Deep Vocals
See also: Barbiturate




Technical info
(IMG:http://metalarea.org/images/spectrogram/2020_Sep/63579066efd1c0da7647f4bc8104a13e.png)
Input File: 07 Pepper.mp3
Channels : 2
Sample Rate : 44100
Precision : 16-bit
Duration : 00:04:31.32 = 11965300 samples = 20349.1 CDDA sectors
File Size : 11.2M
Bit Rate : 330k
Sample Encoding: MPEG audio (layer I, II or III)
Comments :
Title=Pepper
Artist=Necrotized Flesh
Album=Embrace the Great Malaise
Tracknumber=7/16
Year=2020-20-20
Discnumber=1/1



Register


Go to the top of the page
  Insert nick Quick quote
+Quote Post
 
Start new topic
Replies (1 - 1)
post Oct 11 2020, 12:59:19
Post #2

Zero Tolerance
***
Group: Завсегдатай
Posts: 279
Releases: 0
On Forums: 8 years 1 month
Thanks: 40 time(s)
Unknown


Тот случай, когда компила с предыдущим творчеством, хоть я и не нашёл информации, кроме как здесь, что это компилляция, - хуже, чем этот их полноформат "Epilogue" '20 года.
Go to the top of the page
  Insert nick Quick quote
+Quote Post

Reply to this topicStart new topic
1 User(s) are reading this topic (1 Guests and 0 Anonymous Users)
0 Members:

 



- Lo-Fi Version Support form
Copyrights and abuse reports form
Time is now: 20th October 2020 - 18:46:06