Welcome Guest ( Log In | Register )

> Releases Upload / Добавление релизов

Добавить релиз тут / Click here to add release
Рекомендованные обменники / Recommended file shares

> Infernus Novas - Танец Крови (2020), Melodic Death Metal
post Sep 15 2020, 08:07:18
Post #1

Правь статус, ####!111
**************
Group: Металариец
Posts: 23,450
Releases: 16401
From: Г.Харьков
On Forums: 8 years 5 months
Thanks: 308745 time(s)
Unknown


(IMG:http://metalarea.org/images/audiocovers/2020_Sep/acov_tid341636_thumb.jpg)

*Artist: Infernus Novas
*Album: Танец Крови
*Year: 2020
*Genre: Melodic Death Metal
*Country: Russian Federation (IMG:http://metalarea.org/forum/style_images/flags/Russian%20Federation.png)
*Format: mp3@CBR320kbps
*Size: 105MB

Tracklist:
1. Интро 01:17 instrumental
2. Лживый гонец 05:32
3. Прозрение 05:48
4. Ритуал 06:27
5. Дьявольская ночь 05:20
6. Тёмный мессия 05:19
7. На перепутье 06:04
8. Изгнание 04:36
9. Приговор 04:35
******************************
Total playing time: 44:58



Preview 3

Technical info
(IMG:http://metalarea.org/images/spectrogram/2020_Sep/4ab39425b5ba105632f0972f9763eb06.png)
Input File: 04 Ритуал.mp3
Channels : 2
Sample Rate : 44100
Precision : 16-bit
Duration : 00:06:27.60 = 17093160 samples = 29070 CDDA sectors
File Size : 15.8M
Bit Rate : 326k
Sample Encoding: MPEG audio (layer I, II or III)
Comments :
Title=Ðèòóàë
Artist=Infernus Novas
Album=Òàíåö êðîâè
Tracknumber=4/9
Year=2020-20-20
Discnumber=1/1



Register


Go to the top of the page
  Insert nick Quick quote
+Quote Post
 
Start new topic
Replies (1 - 2)
post Sep 15 2020, 13:52:37
Post #2

MDM-Thrash Metal
**************
Group: Металариец
Posts: 9,879
Releases: 1070
From: Одесса
On Forums: 13 years 2 months
Thanks: 26651 time(s)
Ukraine


И вот это беспробудное дно и примитивизм называется мелодезом???
Пздц полный!


Thanks:
Go to the top of the page
  Insert nick Quick quote
+Quote Post
post Sep 16 2020, 08:50:17
Post #3

тебе 29, а ты все реверсами балуешься
***********
Group: Металариец
Posts: 1,999
Releases: 4
On Forums: 12 years 2 months
Thanks: 706 time(s)
Russian Federation


Вокал так себе, тексты унылые, а вот инструментальная часть зашла.
Go to the top of the page
  Insert nick Quick quote
+Quote Post

Reply to this topicStart new topic
1 User(s) are reading this topic (1 Guests and 0 Anonymous Users)
0 Members:

 



- Lo-Fi Version Support form
Copyrights and abuse reports form
Time is now: 20th October 2020 - 19:00:15