Welcome Guest ( Log In | Register )

> Releases Upload / Добавление релизов

Добавить релиз тут / Click here to add release
Рекомендованные обменники / Recommended file shares

> Iron Angel - Live In Bochum [live] (2013), Power/Speed/Thrash Metal (D)
post Sep 15 2020, 08:54:54
Post #1

Join my religion, or die
**************
Group: Металариец
Posts: 10,828
Releases: 1572
From: Питера
On Forums: 11 years 1 month
Thanks: 20565 time(s)
Russian Federation


(IMG:https://metalarea.org/images/audiocovers/2020_Sep/acov_tid341637_thumb.jpg)

*Artist: Iron Angel
*Album: Live In Bochum [live]
*Year: 2013
*Genre: Power/Speed/Thrash Metal
*Country: Germany (IMG:https://metalarea.org/forum/style_images/flags/Germany.png)
*Format: mp3@CBR320kbps
*Size: 68MB

Tracklist:
01. Metalstorm 04:23
02. Son of a Bitch 03:16
03. Stronger than Steel 05:13
04. Vicious 04:10
05. Fight for Your Life 03:50
06. Creatures of Destruction 04:15
07. Sea of Flames 04:41
******************************
Total playing time: 29:48

Preview 1

Extended info
Вот он, настоящий Iron Angel золотой эпохи.
Концерт записан в мае 1986 года.



Technical info
(IMG:https://metalarea.org/images/spectrogram/2020_Sep/21a42e5e7416a2dda305ec27491908a1.png)
Input File: 01 Metalstorm.mp3
Channels : 2
Sample Rate : 44100
Precision : 16-bit
Duration : 00:04:24.22 = 11652102 samples = 19816.5 CDDA sectors
File Size : 10.7M
Bit Rate : 323k
Sample Encoding: MPEG audio (layer I, II or III)
Comments :
Title=Metalstorm
Artist=Iron Angel
Album=2013 Live in Bochum
Tracknumber=01/07
Year=2013
Genre=Speed Metal



Register


Go to the top of the page
  Insert nick Quick quote
+Quote Post
 
Start new topic
Replies (1 - 1)
post Sep 25 2020, 16:11:47
Post #2

hearer & reader
**************
Group: Металариец
Posts: 9,109
Releases: 158
From: Moscow
On Forums: 13 years 1 month
Thanks: 9640 time(s)
Russian Federation


Есть на "The Tapes" CD 2003.
Ну, если кому надо рип с винила...
Go to the top of the page
  Insert nick Quick quote
+Quote Post

Reply to this topicStart new topic
1 User(s) are reading this topic (1 Guests and 0 Anonymous Users)
0 Members:

 



- Lo-Fi Version Support form
Copyrights and abuse reports form
Time is now: 29th October 2020 - 18:07:43