Welcome Guest ( Log In | Register )

> Releases Upload / Добавление релизов

Добавить релиз тут / Click here to add release
Рекомендованные обменники / Recommended file shares

> Flesh Consumes All - Adrift [ep] (2020), Death Metal
post Sep 15 2020, 09:49:48
Post #1

Правь статус, ####!111
**************
Group: Металариец
Posts: 23,148
Releases: 16149
From: Г.Харьков
On Forums: 8 years 4 months
Thanks: 300501 time(s)
Unknown


(IMG:http://metalarea.org/images/audiocovers/2020_Sep/acov_tid341640_thumb.jpg)

*Artist: Flesh Consumes All
*Album: Adrift [ep]
*Year: 2020
*Genre: Death Metal
*Country: United States (IMG:http://metalarea.org/forum/style_images/flags/United%20States.png)
*Format: mp3@CBR320kbps
*Size: 40MB

Tracklist:
1. Infernal 03:55
2. Vile Walls of Organic Matter 03:43
3. Otherworldly Presence 04:28
4. Atonement 04:13
******************************
Total playing time: 16:19



Extended info
Isaac Russell All instruments, Vocals


Technical info
(IMG:http://metalarea.org/images/spectrogram/2020_Sep/5591ea13f3c7781092d079226d0be4c4.png)
Input File: 03 Otherworldly Presence.mp3
Channels : 2
Sample Rate : 44100
Precision : 16-bit
Duration : 00:04:28.27 = 11830531 samples = 20120 CDDA sectors
File Size : 11.4M
Bit Rate : 339k
Sample Encoding: MPEG audio (layer I, II or III)
Comments :
Title=Otherworldly Presence
Artist=Flesh Consumes All
Album=Adrift
Tracknumber=3/4
Year=2020-20-20
Genre=Metal
Discnumber=1/1



Register


Go to the top of the page
  Insert nick Quick quote
+Quote Post
 
Start new topic
Replies (1 - 1)
post Sep 16 2020, 07:35:47
Post #2

Семь Литров
*******
Group: Металариец
Posts: 721
Releases: 1
From: APATIN, SERBIA, АПАТИН, СЕРБИЯ
On Forums: 12 years 10 months
Thanks: 1274 time(s)



Flac

Register


Thanks:
(1) Olethros,
Go to the top of the page
  Insert nick Quick quote
+Quote Post

Reply to this topicStart new topic
2 User(s) are reading this topic (2 Guests and 0 Anonymous Users)
0 Members:

 



- Lo-Fi Version Support form
Copyrights and abuse reports form
Time is now: 20th September 2020 - 11:36:18