Welcome Guest ( Log In | Register )

> Releases Upload / Добавление релизов

Добавить релиз тут / Click here to add release
Рекомендованные обменники / Recommended file shares

> Evilyn - Inside Shells [ep] (2020), Avant-Garde Death Metal
post Sep 15 2020, 11:41:01
Post #1

Правь статус, ####!111
**************
Group: Металариец
Posts: 23,526
Releases: 16459
From: Г.Харьков
On Forums: 8 years 5 months
Thanks: 310294 time(s)
Unknown


(IMG:http://metalarea.org/images/audiocovers/2020_Sep/acov_tid341642_thumb.jpg)

*Artist: Evilyn
*Album: Inside Shells [ep]
*Year: 2020
*Genre: Avant-Garde Death Metal
*Country: International (IMG:http://metalarea.org/forum/style_images/flags/International.png)
*Format: mp3@CBR320kbps
*Size: 42MB

Tracklist:
1. Colossal Cyclops 03:00
2. Spires 03:35
3. Inside Shells 04:43
4. Breaker of Chains 02:57
5. Embers Burn 02:40
******************************
Total playing time: 16:55



Extended info
United States / Canada
Anthony Lipari - Guitars, Vocals & Composition
Lee Fisher - Drums
Jim Hildebrandt - Bass


Technical info
(IMG:http://metalarea.org/images/spectrogram/2020_Sep/fc7495b2262f524147603b5e629a4d74.png)
Input File: 03 Inside Shells.mp3
Channels : 2
Sample Rate : 44100
Precision : 16-bit
Duration : 00:04:43.81 = 12515977 samples = 21285.7 CDDA sectors
File Size : 12.0M
Bit Rate : 338k
Sample Encoding: MPEG audio (layer I, II or III)
Comments :
Title=Inside Shells
Artist=Evilyn
Album=Inside Shells
Tracknumber=3/5
Year=2020-20-20
Genre=Rock
Discnumber=1/1



Register


Go to the top of the page
  Insert nick Quick quote
+Quote Post
 
Start new topic
Replies (1 - 1)
post Oct 7 2020, 10:12:37
Post #2

Zero Tolerance
****
Group: Металариец
Posts: 300
Releases: 0
On Forums: 8 years 1 month
Thanks: 50 time(s)
Unknown


Рискну послушать второй раз. С первого не раскусил.
Go to the top of the page
  Insert nick Quick quote
+Quote Post

Reply to this topicStart new topic
2 User(s) are reading this topic (2 Guests and 0 Anonymous Users)
0 Members:

 



- Lo-Fi Version Support form
Copyrights and abuse reports form
Time is now: 26th October 2020 - 19:54:32