Welcome Guest ( Log In | Register )

> Releases Upload / Добавление релизов

Добавить релиз тут / Click here to add release
Рекомендованные обменники / Recommended file shares

> Steam Jet - Doom & Gloom [ep] (2020), Stoner/Doom Metal/Blues Rock
post Sep 15 2020, 12:32:57
Post #1

Правь статус, ####!111
**************
Group: Металариец
Posts: 47,329
Releases: 742
On Forums: 11 years 3 months
Thanks: 40265 time(s)
Russian Federation


(IMG:http://metalarea.org/images/audiocovers/2020_Sep/acov_tid341643_thumb.jpg)

*Artist: Steam Jet
*Album: Doom & Gloom [ep]
*Year: 2020
*Genre: Stoner/Doom Metal/Blues Rock
*Country: Russian Federation (IMG:http://metalarea.org/forum/style_images/flags/Russian%20Federation.png)
*Format: mp3@CBR320kbps
*Size: 66MB

Tracklist:
1. Dead Inside 04:52
2. Día De Los Muertos 04:57
3. No Sun 04:52
4. IYDIW 05:25
5. Last Song 2020 04:15
******************************
Total playing time: 24:21



Technical info
(IMG:http://metalarea.org/images/spectrogram/2020_Sep/d89d90dc1a1206b5aef45bdd0241f57a.png)
Input File: Steam Jet - Doom & Gloom - 01 Dead Inside.mp3
Channels : 2
Sample Rate : 44100
Precision : 16-bit
Duration : 00:04:52.67 = 12906571 samples = 21950 CDDA sectors
File Size : 11.9M
Bit Rate : 325k
Sample Encoding: MPEG audio (layer I, II or III)
Comments :
Title=Dead Inside
Artist=Steam Jet
Album=Doom & Gloom
Tracknumber=1
Year=2020



Register


Go to the top of the page
  Insert nick Quick quote
+Quote Post
 
Start new topic
Replies (1 - 2)
post Sep 15 2020, 20:24:21
Post #2

Правь статус, ####!111
**************
Group: Металариец
Posts: 47,329
Releases: 742
On Forums: 11 years 3 months
Thanks: 40265 time(s)
Russian Federation


Очень качёвый и сочный музон. Dead Inside так вообще огонь-хитяра (IMG:style_emoticons/default/pray.gif) (IMG:style_emoticons/default/banana.gif)
Go to the top of the page
  Insert nick Quick quote
+Quote Post
post Sep 15 2020, 21:41:14
Post #3

Четыре Литра
****
Group: Металариец
Posts: 327
Releases: 6
On Forums: 14 years 8 months
Thanks: 106 time(s)
Russian Federation


Закос под Alice in Chains?
Go to the top of the page
  Insert nick Quick quote
+Quote Post

Reply to this topicStart new topic
2 User(s) are reading this topic (2 Guests and 0 Anonymous Users)
0 Members:

 



- Lo-Fi Version Support form
Copyrights and abuse reports form
Time is now: 20th September 2020 - 01:56:00