Welcome Guest ( Log In | Register )

> Releases Upload / Добавление релизов

Добавить релиз тут / Click here to add release
Рекомендованные обменники / Recommended file shares

 
Reply to this topicStart new topic
> Nefarious - 1993 Demo [demo] (1993), Death Metal (D14)
post Sep 15 2020, 13:11:10
Post #1

Подвал
**************
Group: Металариец
Posts: 15,297
Releases: 8683
From: Far East (Khabarovsk)
On Forums: 11 years 8 months
Thanks: 91914 time(s)
Russian Federation


(IMG:http://metalarea.org/images/audiocovers/2020_Sep/acov_tid341644_thumb.jpg)

*Artist: Nefarious
*Album: 1993 Demo [demo]
*Year: 1993
*Genre: Death Metal
*Country: United States (IMG:http://metalarea.org/forum/style_images/flags/United%20States.png)
*Format: mp3@CBR192kbps
*Size: 19MB

Tracklist:
1. Will It Ever End? 03:32
2. Mung Party 02:14
3. Beyond The Shadsows Of Sin 02:14
4. Drawn Entrails 01:10
5. Odius Indulgence 02:27
6. Lobotomy By Sodomy 02:37
******************************
Total playing time: 14:14

Extended info
Band from Silver Spring, Maryland.


Technical info
(IMG:http://metalarea.org/images/spectrogram/2020_Sep/c6f89d1dda52654c7251db3690cc0b13.png)
Input File: 01-Will It Ever End.mp3
Channels : 2
Sample Rate : 44100
Precision : 16-bit
Duration : 00:03:23.51 = 8974571 samples = 15262.9 CDDA sectors
File Size : 4.89M
Bit Rate : 192k
Sample Encoding: MPEG audio (layer I, II or III)
Comments :
Title=Will It Ever End
Artist=Nefarious (US, MD)
Album=1993 Demo
Tracknumber=01
Year=1993
Genre=Death Metal



Register


Go to the top of the page
  Insert nick Quick quote
+Quote Post

Reply to this topicStart new topic
1 User(s) are reading this topic (1 Guests and 0 Anonymous Users)
0 Members:

 



- Lo-Fi Version Support form
Copyrights and abuse reports form
Time is now: 25th October 2020 - 09:42:06