Welcome Guest ( Log In | Register )

> Abhorrent Cabaret - Stories Of Undeniable Abhorrence (2020), Goregrind
post Sep 15 2020, 13:11:50
Post #1

Serial Uploader
Group Icon
Group: V.I.P
Posts: 37,390
Releases: 35569
From: Lithuania
On Forums: 12 years 3 months
Thanks: 425264 time(s)
Lithuania


(IMG:https://metalarea.org/images/audiocovers/2020_Sep/acov_tid341645_thumb.jpg)

*Artist: Abhorrent Cabaret
*Album: Stories Of Undeniable Abhorrence
*Year: 2020
*Genre: Goregrind
*Country: Czech Republic (IMG:https://metalarea.org/forum/style_images/flags/Czech%20Republic.png)
*Format: mp3@CBR320kbps
*Size: 61MB

Tracklist:
01. Røugh Røuge 02:01
02. Handcuffed Pantønime 01:20
03. Electrøtørture Chøreøgraphy 02:10
04. Hølløw Stage Høe 02:07
05. Genital Føuntain Act 02:31
06. Last Breathe Øn Last Scene 02:12
07. Røyal Skit 02:02
08. Divas & Thrøats 03:25
09. Søprano Upøn Intersectiøn 01:31
10. Perversity Behind Curtain 02:25
11. Arsefaced Magician 02:40
******************************
Total playing time: 24:24



(IMG:https://metalarea.org/images/youtube.png)

Technical info
(IMG:https://metalarea.org/images/spectrogram/2020_Sep/bf417d5e60381ed90b753579c8dd003f.png)
Input File: 11. Arsefaced Magician.mp3
Channels : 2
Sample Rate : 44100
Precision : 16-bit
Duration : 00:02:40.14 = 7062262 samples = 12010.6 CDDA sectors
File Size : 6.77M
Bit Rate : 338k
Sample Encoding: MPEG audio (layer I, II or III)
Comments :
Title=Arsefaced Magician
Artist=Abhorrent Cabaret
Album=Støries of Undeniable Abhorrence
Tracknumber=11
Year=2020



Register


Go to the top of the page
  Insert nick Quick quote
+Quote Post
 
Start new topic
Replies (1 - 3)
post Sep 16 2020, 07:34:19
Post #2

Семь Литров
*******
Group: Металариец
Posts: 721
Releases: 1
From: APATIN, SERBIA, АПАТИН, СЕРБИЯ
On Forums: 12 years 10 months
Thanks: 1274 time(s)



Flac

Register
Go to the top of the page
  Insert nick Quick quote
+Quote Post
post Sep 16 2020, 12:53:22
Post #3

Семь Литров
*******
Group: Металариец
Posts: 746
Releases: 9
From: Беларусь
On Forums: 13 years 2 months
Thanks: 259 time(s)
Belarus


Круто, но избито то тошноты.


Thanks:
Go to the top of the page
  Insert nick Quick quote
+Quote Post
post Sep 17 2020, 22:45:59
Post #4

Самый Тихий Час
**************
Group: Металариец
Posts: 6,047
Releases: 2
On Forums: 10 years 10 months
Thanks: 2798 time(s)
Unknown


Круто. Валят наступательно на мощном звуке и с агрессивным унитазом во главе.


Go to the top of the page
  Insert nick Quick quote
+Quote Post

Reply to this topicStart new topic
2 User(s) are reading this topic (2 Guests and 0 Anonymous Users)
0 Members:

 



- Lo-Fi Version Support form
Copyrights and abuse reports form
Time is now: 20th September 2020 - 10:45:23