Welcome Guest ( Log In | Register )

 
Reply to this topicStart new topic
> Decadence - Demotape 1989 [demo] (1989), Thrash Metal (D)
post Sep 15 2020, 13:22:05
Post #1

Подвал
**************
Group: Металариец
Posts: 15,129
Releases: 8577
From: Far East (Khabarovsk)
On Forums: 11 years 7 months
Thanks: 90362 time(s)
Russian Federation


(IMG:http://metalarea.org/images/audiocovers/2020_Sep/acov_tid341646_thumb.jpg)

*Artist: Decadence
*Album: Demotape 1989 [demo]
*Year: 1989
*Genre: Thrash Metal
*Country: Norway (IMG:http://metalarea.org/forum/style_images/flags/Norway.png)
*Format: mp3@CBR192kbps
*Size: 32MB

Tracklist:
1. The Conqueror 05:07
2. Lies 06:15
3. Eat Shit & Die 05:27
4. The Watch (Rehearsal '90) 05:28
******************************
Total playing time: 22:17

Extended info
This demo was recorded at Norsk Lydskole A/S during a two-day period.


Technical info
(IMG:http://metalarea.org/images/spectrogram/2020_Sep/9bf19df7e41405349f8d47864e7619ee.png)
Input File: 01-The Conqueror.mp3
Channels : 2
Sample Rate : 44100
Precision : 16-bit
Duration : 00:05:07.84 = 13575788 samples = 23088.1 CDDA sectors
File Size : 7.39M
Bit Rate : 192k
Sample Encoding: MPEG audio (layer I, II or III)
Comments :
Title=The Conqueror
Artist=Decadence (Nor)
Album=Demotape 1989
Tracknumber=01
Year=1989
Genre=Thrash Metal



Register


Go to the top of the page
  Insert nick Quick quote
+Quote Post

Reply to this topicStart new topic
1 User(s) are reading this topic (1 Guests and 0 Anonymous Users)
0 Members:

 



- Lo-Fi Version Support form
Copyrights and abuse reports form
Time is now: 20th September 2020 - 12:00:40