Welcome Guest ( Log In | Register )

> Releases Upload / Добавление релизов

Добавить релиз тут / Click here to add release
Рекомендованные обменники / Recommended file shares

 
Reply to this topicStart new topic
> Chime - Just For Fun [demo] (1991), Heavy Metal
post Sep 15 2020, 13:40:49
Post #1

Подвал
**************
Group: Металариец
Posts: 15,307
Releases: 8685
From: Far East (Khabarovsk)
On Forums: 11 years 9 months
Thanks: 91997 time(s)
Russian Federation


(IMG:http://metalarea.org/images/audiocovers/2020_Sep/acov_tid341647_thumb.png)

*Artist: Chime
*Album: Just For Fun [demo]
*Year: 1991
*Genre: Heavy Metal
*Country: Germany (IMG:http://metalarea.org/forum/style_images/flags/Germany.png)
*Format: mp3@CBR192kbps
*Size: 26MB

Tracklist:
1. Saddam 04:14
2. Shadows Of The Night 04:51
3. Sweet Little Jeannie 03:12
4. Rock City 03:50
5. Angel Face 03:01
******************************
Total playing time: 19:08

Technical info
(IMG:http://metalarea.org/images/spectrogram/2020_Sep/f81f30bd3e25e4680fc5af7a968f5191.png)
Input File: 01-Saddam.mp3
Channels : 2
Sample Rate : 44100
Precision : 16-bit
Duration : 00:04:14.60 = 11227948 samples = 19095.1 CDDA sectors
File Size : 6.11M
Bit Rate : 192k
Sample Encoding: MPEG audio (layer I, II or III)
Comments :
Title=Saddam
Artist=Chime
Album=Just For Fun (Demo)
Tracknumber=01
Year=1991
Genre=Heavy Metal/Hard Rock



Register


Go to the top of the page
  Insert nick Quick quote
+Quote Post

Reply to this topicStart new topic
1 User(s) are reading this topic (1 Guests and 0 Anonymous Users)
0 Members:

 



- Lo-Fi Version Support form
Copyrights and abuse reports form
Time is now: 26th October 2020 - 18:53:21