Welcome Guest ( Log In | Register )

> Releases Upload / Добавление релизов

Добавить релиз тут / Click here to add release
Рекомендованные обменники / Recommended file shares

 
Reply to this topicStart new topic
> Hellegryre - Hellegryre [ep] (2020), Blackened Death Metal
post Sep 15 2020, 18:52:20
Post #1

Правь статус, ####!111
**************
Group: Металариец
Posts: 23,148
Releases: 16149
From: Г.Харьков
On Forums: 8 years 4 months
Thanks: 300500 time(s)
Unknown


(IMG:http://metalarea.org/images/audiocovers/2020_Sep/acov_tid341649_thumb.jpg)

*Artist: Hellegryre
*Album: Hellegryre [ep]
*Year: 2020
*Genre: Blackened Death Metal
*Country: United States (IMG:http://metalarea.org/forum/style_images/flags/United%20States.png)
*Format: mp3@CBR320kbps
*Size: 41MB

Tracklist:
1. Oferfroren 05:00
2. Woruldege 06:18
3. Nihtegesa 06:27
******************************
Total playing time: 17:45



Technical info
(IMG:http://metalarea.org/images/spectrogram/2020_Sep/3490f1283c2685ec5e87e065c3afcba9.png)
Input File: Hellegryre - Hellegryre - 02 Woruldege.mp3
Channels : 2
Sample Rate : 44100
Precision : 16-bit
Duration : 00:06:18.09 = 16673813 samples = 28356.8 CDDA sectors
File Size : 15.3M
Bit Rate : 324k
Sample Encoding: MPEG audio (layer I, II or III)
Comments :
Title=Woruldege
Artist=Hellegryre
Album=Hellegryre
Tracknumber=2
Year=2020



Register


Go to the top of the page
  Insert nick Quick quote
+Quote Post

Reply to this topicStart new topic
1 User(s) are reading this topic (1 Guests and 0 Anonymous Users)
0 Members:

 



- Lo-Fi Version Support form
Copyrights and abuse reports form
Time is now: 20th September 2020 - 11:28:10