Welcome Guest ( Log In | Register )

> Releases Upload / Добавление релизов

Добавить релиз тут / Click here to add release
Рекомендованные обменники / Recommended file shares

> Victimized - The Sinner's Plead (2016), Thrash Metal
post Sep 15 2020, 20:51:32
Post #1

Правь статус, ####!111
**************
Group: Металариец
Posts: 23,144
Releases: 16143
From: Г.Харьков
On Forums: 8 years 4 months
Thanks: 300350 time(s)
Unknown


(IMG:http://metalarea.org/images/audiocovers/2020_Sep/acov_tid341651_thumb.jpg)

*Artist: Victimized
*Album: The Sinner's Plead
*Year: 2016
*Genre: Thrash Metal
*Country: Greece (IMG:http://metalarea.org/forum/style_images/flags/Greece.png)
*Format: mp3@CBR320kbps
*Size: 95MB

Tracklist:
01. It Ends Now
02. 3rd Party Perspective
03. Under The Lights
04. E.R. (Escape Reality)
05. God On Earth
06. Eyes Sewn Shut
07. Never In Control
08. The Sinner's Plead
09. All Of Us
******************************
Total playing time: 41:44




Extended info
Samos Angelos: Guitar/Bass/Vocals
Margiolis Panagiotis: Drums
Ristas Kosmas: Lead Guitar
Guest lead at 02:10 by Zisis Geil


Technical info
(IMG:http://metalarea.org/images/spectrogram/2020_Sep/8ab0dc614216050c970c90ca0bc3b4fe.png)
Input File: 01 - It Ends Now.mp3
Channels : 2
Sample Rate : 44100
Precision : 16-bit
Duration : 00:05:22.10 = 14204478 samples = 24157.3 CDDA sectors
File Size : 12.9M
Bit Rate : 320k
Sample Encoding: MPEG audio (layer I, II or III)
Comments :
Title=It Ends Now
Artist=Victimized
Album=The Sinner's Plead
Tracknumber=1
Year=2016
Genre=Thrash Metal



Register


Go to the top of the page
  Insert nick Quick quote
+Quote Post
 
Start new topic
Replies (1 - 3)
post Sep 16 2020, 06:35:28
Post #2

Литр
*
Group: Подсевший
Posts: 88
Releases: 0
On Forums: 11 years 4 months
Thanks: 32 time(s)
Bulgaria


Группа называется Victim Iced,а нет Victimized.

https://www.metal-archives.com/bands/Victim_Iced/3540434488
Go to the top of the page
  Insert nick Quick quote
+Quote Post
post Sep 16 2020, 12:09:15
Post #3

\m/
Group Icon
Group: S-moderation team
Posts: 7,823
Releases: 19
From: Петропавловск-Камчатский
On Forums: 11 years 3 months
Thanks: 7705 time(s)
Russian Federation


ЦИТАТА
Years active:
2002-2016 (as Victimized), 2016-present

Группа сменила название.
Меня смущает обложка. Видимо это альбом под старым названием.
Go to the top of the page
  Insert nick Quick quote
+Quote Post
post Sep 16 2020, 13:00:17
Post #4

Правь статус, ####!111
**************
Group: Металариец
Posts: 23,144
Releases: 16143
From: Г.Харьков
On Forums: 8 years 4 months
Thanks: 300350 time(s)
Unknown


ЦИТАТА(DarkHorde @ 16th September 2020 - 12:09:15) *
Видимо это альбом под старым названием.

DarkHorde,
Так и есть.И в этой интерпретации они записали его на один трек больше,чем в 2017 под новым названием.


Thanks:
Go to the top of the page
  Insert nick Quick quote
+Quote Post

Reply to this topicStart new topic
2 User(s) are reading this topic (2 Guests and 0 Anonymous Users)
0 Members:

 



- Lo-Fi Version Support form
Copyrights and abuse reports form
Time is now: 20th September 2020 - 02:04:22