Welcome Guest ( Log In | Register )

> Releases Upload / Добавление релизов

Добавить релиз тут / Click here to add release
Рекомендованные обменники / Recommended file shares

> Chasmdweller - Bacterial Lotus (2020), Death/Doom Metal
post Sep 16 2020, 02:13:31
Post #1

Правь статус, ####!111
**************
Group: Металариец
Posts: 23,148
Releases: 16149
From: Г.Харьков
On Forums: 8 years 4 months
Thanks: 300503 time(s)
Unknown


(IMG:http://metalarea.org/images/audiocovers/2020_Sep/acov_tid341652_thumb.jpg)

*Artist: Chasmdweller
*Album: Bacterial Lotus
*Year: 2020
*Genre: Death/Doom Metal
*Country: Canada (IMG:http://metalarea.org/forum/style_images/flags/Canada.png)
*Format: mp3@CBR320kbps
*Size: 98MB

Tracklist:
1. Septic Coma 07:10
2. Seven Lucid Mitochondria 08:37
3. Wing of the Lotus 07:57
4. Oracle of Innumerable Truths 10:15
5. Photosynthetic Attunement 07:35
******************************
Total playing time: 41:34



Extended info
Zach Smith Guitars, Bass, Drums, Electronics (2019-present)
See also: ex-Chamber of Farts, ex-Cuff, ex-Hate Cross, ex-Intestinal Rot, ex-Virulent Gestation, Execration Chamber, The Survivalists, Whisker Biscuit, ex-KLIT, ex-Necromatory, ex-The One-eyed Muskrats
Donny G Vocals, Lyrics (2019-present)


Technical info
(IMG:http://metalarea.org/images/spectrogram/2020_Sep/b66b91250e33ddf6a2b5fddede1fc535.png)
Input File: 03. Wing of the Lotus.mp3
Channels : 2
Sample Rate : 44100
Precision : 16-bit
Duration : 00:07:57.78 = 21070230 samples = 35833.7 CDDA sectors
File Size : 19.6M
Bit Rate : 329k
Sample Encoding: MPEG audio (layer I, II or III)
Comments :
Title=Wing of the Lotus
Artist=Chasmdweller
Album=Bacterial Lotus (320)
Tracknumber=03
Year=2020
Genre=Metal



Register


Go to the top of the page
  Insert nick Quick quote
+Quote Post
 
Start new topic
Replies (1 - 4)
post Sep 16 2020, 04:05:47
Post #2

Два Литра
**
Group: Завсегдатай
Posts: 144
Releases: 0
On Forums: 2 years 7 months
Thanks: 51 time(s)
Belarus


Очередное молотилово головой о стены под шум компрессора, вместо музыки.
Go to the top of the page
  Insert nick Quick quote
+Quote Post
post Sep 16 2020, 09:03:14
Post #3

Два Литра
**
Group: Завсегдатай
Posts: 120
Releases: 0
On Forums: 3 years 4 months
Thanks: 76 time(s)
Zimbabwe


ЦИТАТА(GRAF @ Sep 16 2020, 07:05:47) *
Очередное молотилово головой о стены под шум компрессора, вместо музыки.



https://play.google.com/store/music/artist/...qjdbvlenw7pnap4

https://play.google.com/store/music/artist/...brs3v4au5bqsy4m

(IMG:style_emoticons/default/20.gif)


Go to the top of the page
  Insert nick Quick quote
+Quote Post
post Sep 16 2020, 13:19:05
Post #4

Литр
*
Group: Подсевший
Posts: 73
Releases: 0
On Forums: 11 years 6 months
Thanks: 12 time(s)
Russian Federation


обложка с другого ракурса
(IMG:https://hornews.com/images/news_large/be33ef910bb69e10657f3911873df33f.jpg)


Go to the top of the page
  Insert nick Quick quote
+Quote Post
post Sep 18 2020, 12:29:00
Post #5

####!111
**************
Group: Металариец
Posts: 4,148
Releases: 127
From: The Mountain Of DOOM
On Forums: 12 years 11 months
Thanks: 5694 time(s)
Russian Federation


Звук под стать болотной обложке - густой, вязкий, ЗЛОвонный.
Если б не это прошёл бы мимо (так-то стандартная дезуха).
Дума было очень немного и тот кончился после 2-го трека. Из описания можно и убрать
Может даже второй раз послушаю


Thanks:
Go to the top of the page
  Insert nick Quick quote
+Quote Post

Reply to this topicStart new topic
2 User(s) are reading this topic (2 Guests and 0 Anonymous Users)
0 Members:

 



- Lo-Fi Version Support form
Copyrights and abuse reports form
Time is now: 20th September 2020 - 12:01:28