Welcome Guest ( Log In | Register )

> Releases Upload / Добавление релизов

Добавить релиз тут / Click here to add release
Рекомендованные обменники / Recommended file shares

> Ataraxis - Black Veil (2020), Death Metal
post Sep 16 2020, 04:29:35
Post #1

Правь статус, ####!111
**************
Group: Металариец
Posts: 23,142
Releases: 16143
From: Г.Харьков
On Forums: 8 years 4 months
Thanks: 300347 time(s)
Unknown


(IMG:http://metalarea.org/images/audiocovers/2020_Sep/acov_tid341654_thumb.jpg)

*Artist: Ataraxis
*Album: Black Veil
*Year: 2020
*Genre: Death Metal
*Country: France (IMG:http://metalarea.org/forum/style_images/flags/France.png)
*Format: mp3@CBR320kbps
*Size: 102MB

Tracklist:
1. The Crown
2. Masked Monsters
3. Toxic Twins
4. The Creation
5. One Way Mirror
6. Black Veil
7. Monster Within
8. Armored Nightmare
9. Carnival
10. Illumination
******************************
Total playing time: 43:38

(IMG:http://metalarea.org/images/youtube.png)


Technical info
(IMG:http://metalarea.org/images/spectrogram/2020_Sep/9027469d355fe296793fe852ff4fd8bc.png)
Input File: 05 - One Way Mirror.mp3
Channels : 2
Sample Rate : 44100
Precision : 16-bit
Duration : 00:05:25.53 = 14355829 samples = 24414.7 CDDA sectors
File Size : 13.2M
Bit Rate : 325k
Sample Encoding: MPEG audio (layer I, II or III)
Comments :
Title=One Way Mirror
Artist=Ataraxis
Album=Black Veil
Tracknumber=5
Year=2020



Register


Go to the top of the page
  Insert nick Quick quote
+Quote Post
 
Start new topic
Replies (1 - 1)
post Sep 16 2020, 21:10:25
Post #2

Правь статус, ####!111
**************
Group: Металариец
Posts: 23,142
Releases: 16143
From: Г.Харьков
On Forums: 8 years 4 months
Thanks: 300347 time(s)
Unknown


FLAC (Tracks) 331 mb
Register


Go to the top of the page
  Insert nick Quick quote
+Quote Post

Reply to this topicStart new topic
2 User(s) are reading this topic (2 Guests and 0 Anonymous Users)
0 Members:

 



- Lo-Fi Version Support form
Copyrights and abuse reports form
Time is now: 20th September 2020 - 01:23:21