Welcome Guest ( Log In | Register )

> Releases Upload / Добавление релизов

Добавить релиз тут / Click here to add release
Рекомендованные обменники / Recommended file shares

> Victim Iced - Pieces (2020), Thrash Metal
post Sep 16 2020, 04:52:05
Post #1

Правь статус, ####!111
**************
Group: Металариец
Posts: 23,450
Releases: 16401
From: Г.Харьков
On Forums: 8 years 5 months
Thanks: 308736 time(s)
Unknown


(IMG:http://metalarea.org/images/audiocovers/2020_Sep/acov_tid341655_thumb.jpg)

*Artist: Victim Iced
*Album: Pieces
*Year: 2020
*Genre: Thrash Metal
*Country: Greece (IMG:http://metalarea.org/forum/style_images/flags/Greece.png)
*Format: mp3@CBR320kbps
*Size: 72MB

Tracklist:
1. Encased In Ice 03:24
2. Scorn 02:54
3. World Of Enemies 04:29
4. Ghost 02:51
5. The Will To Live 03:59
6. No Love Lost 03:57
7. The Plead 04:34
8. Cynical Fool 04:40
******************************
Total playing time: 30:48




Extended info
Rafail Dimitrios Raptis Bass
Hatzoglou Makis Guitars (lead)
Samos Angelos Vocals, Guitars
Ertoroul Moumin Drums


Technical info
(IMG:http://metalarea.org/images/spectrogram/2020_Sep/c828c330b79ed729e495c9f4dc7ebac0.png)
Input File: 05 The Will To Live.mp3
Channels : 2
Sample Rate : 44100
Precision : 16-bit
Duration : 00:04:00.08 = 10587440 samples = 18005.9 CDDA sectors
File Size : 9.73M
Bit Rate : 324k
Sample Encoding: MPEG audio (layer I, II or III)
Comments :
Title=The Will To Live
Artist=Victim Iced
Album=Pieces
Tracknumber=5
Year=2020



Register


Go to the top of the page
  Insert nick Quick quote
+Quote Post
 
Start new topic
Replies (1 - 1)
post Sep 16 2020, 13:17:57
Post #2

Правь статус, ####!111
**************
Group: Металариец
Posts: 23,450
Releases: 16401
From: Г.Харьков
On Forums: 8 years 5 months
Thanks: 308736 time(s)
Unknown


FLAC (Tracks) 352 mb
Register


Thanks:
Go to the top of the page
  Insert nick Quick quote
+Quote Post

Reply to this topicStart new topic
1 User(s) are reading this topic (1 Guests and 0 Anonymous Users)
0 Members:

 



- Lo-Fi Version Support form
Copyrights and abuse reports form
Time is now: 20th October 2020 - 18:13:03