Welcome Guest ( Log In | Register )

> Releases Upload / Добавление релизов

Добавить релиз тут / Click here to add release
Рекомендованные обменники / Recommended file shares

 
Reply to this topicStart new topic
> Peer Pressure - Catharsis (2020), Hardcore/Punk/Metalcore
post Sep 16 2020, 09:04:48
Post #1

MDM-Thrash Metal
**************
Group: Металариец
Posts: 9,850
Releases: 1048
From: Одесса
On Forums: 13 years 1 month
Thanks: 25992 time(s)
Ukraine


(IMG:http://metalarea.org/images/audiocovers/2020_Sep/acov_tid341657_thumb.jpg)

*Artist: Peer Pressure
*Album: Catharsis
*Year: 2020
*Genre: Hardcore/Punk/Metalcore/Female Vocal
*Country: Canada (IMG:http://metalarea.org/forum/style_images/flags/Canada.png)
*Format: mp3@CBR320kbps
*Size: 77MB

Tracklist:
01. Vixen
02. Stack the Cards
03. Atyches
04. Do a Number on Me
05. Cutthroat
06. Interlude
07. Suffocation (feat. Michael Landry)
08. The Better End
09. It Festers
10. Catharsis
******************************
Total playing time: 33:44



(IMG:http://metalarea.org/images/youtube.png)
(IMG:http://metalarea.org/images/youtube.png)

Technical info
(IMG:http://metalarea.org/images/spectrogram/2020_Sep/29ab806dffd7bf6f4a1311d34ef77a5b.png)
Input File: 02. Stack the Cards.mp3
Channels : 2
Sample Rate : 44100
Precision : 16-bit
Duration : 00:03:27.45 = 9148677 samples = 15559 CDDA sectors
File Size : 8.34M
Bit Rate : 322k
Sample Encoding: MPEG audio (layer I, II or III)
Comments :
Title=Stack the Cards
Artist=Peer Pressure
Album=Catharsis
Tracknumber=2
Year=2020
Genre=Metal
Discnumber=1



Register


Go to the top of the page
  Insert nick Quick quote
+Quote Post

Reply to this topicStart new topic
1 User(s) are reading this topic (1 Guests and 0 Anonymous Users)
0 Members:

 



- Lo-Fi Version Support form
Copyrights and abuse reports form
Time is now: 20th September 2020 - 01:42:36