Welcome Guest ( Log In | Register )

> Releases Upload / Добавление релизов

Добавить релиз тут / Click here to add release
Рекомендованные обменники / Recommended file shares

 
Reply to this topicStart new topic
> In Low Spirits - Sunsets Beyond Our Lives [demo] (1997), Death/Doom Metal
post Sep 16 2020, 09:15:54
Post #1

Маньяк
**********
Group: Металариец
Posts: 1,393
Releases: 341
From: Масква
On Forums: 15 years 1 week
Thanks: 3740 time(s)
Russian Federation


(IMG:https://metalarea.org/images/audiocovers/2020_Sep/acov_tid341658_thumb.jpg)

*Artist: In Low Spirits
*Album: Sunsets Beyond Our Lives [demo]
*Year: 1997
*Genre: Death/Doom Metal
*Country: Italy (IMG:https://metalarea.org/forum/style_images/flags/Italy.png)
*Format: mp3@VBR232kbps
*Size: 35MB

Tracklist:
1. Life 3:27
2. Landscapes 6:23
3. Visions 5:35
4. Soundless 4:11
5. The Holy Dream 2:02
******************************
Total playing time: 21:38

Technical info
(IMG:https://metalarea.org/images/spectrogram/2020_Sep/f383fd8a747c2e59a6574f69c5437d1e.png)
Input File: 02-Landscapes-FFF.mp3
Channels : 2
Sample Rate : 44100
Precision : 16-bit
Duration : 00:06:23.19 = 16898679 samples = 28739.2 CDDA sectors
File Size : 11.3M
Bit Rate : 236k
Sample Encoding: MPEG audio (layer I, II or III)
Comments :
Title=Landscapes
Artist=In Low Spirits
Album=Sunsets Beyond Our Lives
Tracknumber=2
Year=1997
Genre=22



Register


Go to the top of the page
  Insert nick Quick quote
+Quote Post

Reply to this topicStart new topic
1 User(s) are reading this topic (1 Guests and 0 Anonymous Users)
0 Members:

 



- Lo-Fi Version Support form
Copyrights and abuse reports form
Time is now: 23rd October 2020 - 09:42:58