Welcome Guest ( Log In | Register )

> И неформату есть предел.

Рэп/хип-хоп/шансон/поп удаляются. Для них есть свои порталы.

> Ace Frehley - Origins Vol.2 (2020), Hard Rock
post Sep 17 2020, 22:16:59
Post #1

Правь статус, ####!111
**************
Group: Металариец
Posts: 47,425
Releases: 743
On Forums: 11 years 4 months
Thanks: 40562 time(s)
Russian Federation


(IMG:http://metalarea.org/images/audiocovers/2020_Sep/acov_tid341718_thumb.jpg)

*Artist: Ace Frehley
*Album: Origins Vol.2
*Year: 2020
*Genre: Hard Rock
*Country: United States (IMG:http://metalarea.org/forum/style_images/flags/United%20States.png)
*Format: mp3@CBR320kbps
*Size: 107MB

Tracklist:
1. Good Times Bad Times (Led Zeppelin cover)
2. Never in My Life (Mountain cover)
3. Space Truckin' (Deep Purple cover)
4. I'm Down (The Beatles cover)
5. Jumpin' Jack Flash (The Rolling Stones cover)
6. Politician (Cream cover)
7. Lola (The Kinks cover)
8. 30 Days in the Hole (Humble Pie cover)
9. Manic Depression (The Jimi Hendrix Experience cover)
10. Kicks (Paul Revere & the Raiders cover)
11. We Gotta Get out of This Place (The Animals cover)
12. She (KISS cover)
******************************
Total playing time: 46:40

(IMG:http://metalarea.org/images/youtube.png)

Technical info
(IMG:http://metalarea.org/images/spectrogram/2020_Sep/33b0a49080ea01c30cd3fc53d8fc1b7c.png)
Input File: 09. Manic Depression.mp3
Channels : 2
Sample Rate : 44100
Precision : 16-bit
Duration : 00:04:01.31 = 10641727 samples = 18098.2 CDDA sectors
File Size : 9.75M
Bit Rate : 323k
Sample Encoding: MPEG audio (layer I, II or III)
Comments :
Title=Manic Depression
Artist=Ace Frehley
Album=Origins Vol.2
Tracknumber=9
Year=2020
Genre=Hard Rock
Discnumber=1



Register


Go to the top of the page
  Insert nick Quick quote
+Quote Post
 
Start new topic
Replies (1 - 3)
post Sep 18 2020, 14:51:41
Post #2

Правь статус, ####!111
**************
Group: Металариец
Posts: 47,425
Releases: 743
On Forums: 11 years 4 months
Thanks: 40562 time(s)
Russian Federation


Пол неплохой альбом записал, каверы получились небезынтересными.
Go to the top of the page
  Insert nick Quick quote
+Quote Post
post Sep 25 2020, 11:15:10
Post #3

Восемь Литров
********
Group: Металариец
Posts: 826
Releases: 173
On Forums: 1 year 8 months
Thanks: 2227 time(s)
Canada


ugh,
Ace brickwalled the album? sounds like crap production to me
The only redeeming song I found was the re-recording of KISS "She".
Thanks for providing this.
If I still rushed out to buy albums, i would be angry enough to find this asshole Ace and kill him for ripping me off.
Go to the top of the page
  Insert nick Quick quote
+Quote Post
post Sep 25 2020, 12:25:14
Post #4

Правь статус, ####!111
**************
Group: Металариец
Posts: 47,425
Releases: 743
On Forums: 11 years 4 months
Thanks: 40562 time(s)
Russian Federation


Of course this album is not among his best but the choice of songs/bands to cover is good. I wouldn`t call it weak and it deserves at least a couple of spins.


Go to the top of the page
  Insert nick Quick quote
+Quote Post

Reply to this topicStart new topic
1 User(s) are reading this topic (1 Guests and 0 Anonymous Users)
0 Members:

 



- Lo-Fi Version Support form
Copyrights and abuse reports form
Time is now: 27th October 2020 - 10:02:36