Welcome Guest ( Log In | Register )

> Blastheory - Anomalous Revelation (2020), Death Metal
post Sep 18 2020, 10:10:34
Post #1

Правь статус, ####!111
**************
Group: Металариец
Posts: 27,431
Releases: 19912
From: Г.Харьков
On Forums: 9 years 4 months
Thanks: 401587 time(s)
Unknown


(IMG:http://metalarea.org/images/audiocovers/2020_Sep/acov_tid341729_thumb.jpg)

*Artist: Blastheory
*Album: Anomalous Revelation
*Year: 2020
*Genre: Death Metal
*Country: United States (IMG:http://metalarea.org/forum/style_images/flags/United%20States.png)
*Format: mp3@CBR320kbps
*Size: 71MB

Tracklist:
1. Depths in Absurdity
2. De-Genesis
3. Diminished Divinity
4. Anomalous Revelation
5. Vanish Into Dust
6. Valley of the Lilith
7. Nihilism Seduction
******************************
Total playing time: 30:44



Extended info

Jonathan Erwin
Adrian Socaciu
Krzysztof Klingbein



Technical info
(IMG:http://metalarea.org/images/spectrogram/2020_Sep/d16fab935be66241dd82307f865dec98.png)
Input File: 04 - Anomalous Revelation.mp3
Channels : 2
Sample Rate : 44100
Precision : 16-bit
Duration : 00:04:53.50 = 12943394 samples = 22012.6 CDDA sectors
File Size : 11.9M
Bit Rate : 324k
Sample Encoding: MPEG audio (layer I, II or III)
Comments :
Title=Anomalous Revelation
Artist=Blastheory
Album=Anomalous Revelation
Tracknumber=4
Year=2020



Register


Go to the top of the page
  Insert nick Quick quote
+Quote Post
 
Start new topic
Replies (1 - 6)
post Sep 18 2020, 19:13:12
Post #2

Два Литра
**
Group: Завсегдатай
Posts: 107
Releases: 0
On Forums: 6 years 6 months
Thanks: 81 time(s)
Unknown


Я не спец по бруталу. Но может спецы подскажут? Разве это брутал? В моем понимании брутал дэт это что-то непонятное сливающееся в единый гул. А здесь я даже голоса слышу, иногда разбираю слова и слышу "мелодию".
Пы.Сы. Переслушал еще раз. Кидайте в меня свои коричневые выделения [мат->бан]ы. Это не брутал. Как минимум просто дэт. Местами по музыке даже мелодик.


Go to the top of the page
  Insert nick Quick quote
+Quote Post
post Sep 18 2020, 19:30:08
Post #3
BAN
Banned till
Jul 16 2021, 09:09:26



Тебе все побояться ответить ,побоятся ошибиться и я их понимаю.
Если разлаживать и анализировать ,то не будет ни одного альбома с чистым бруталом .
Его надо чувствовать .
Тут есть брутальные притехниченные моменты .
Есть брутальные люди ,а есть люди брутальности.Гитлер. Но назови кого-то ученным .Энштейна можно.
Этот альбом группы называется Anomalous Revelation .Я согласен -АНОМАЛЬНЫЕ ОТКРОВЕНИЯ современного притехниченного бруталла.
.


Go to the top of the page
  Insert nick Quick quote
+Quote Post
post Sep 18 2020, 19:32:17
Post #4

Правь статус, ####!111
**************
Group: Металариец
Posts: 27,431
Releases: 19912
From: Г.Харьков
On Forums: 9 years 4 months
Thanks: 401587 time(s)
Unknown


ЦИТАТА(Hellraiser @ 18th September 2020 - 19:13:12) *
Я не спец по бруталу.

Ну так зачем срач устраиваешь раньше времени?На арее редактировать можно только после того как альбом пройдет
модерацию.Или я сам не разберусь с тегами без твоей помощи?)))


Go to the top of the page
  Insert nick Quick quote
+Quote Post
post Sep 25 2020, 18:07:09
Post #5

hearer & reader
**************
Group: Металариец
Posts: 9,876
Releases: 173
From: Moscow
On Forums: 14 years 2 weeks
Thanks: 11201 time(s)
Russian Federation


Register


Thanks:
Go to the top of the page
  Insert nick Quick quote
+Quote Post
post Sep 27 2020, 21:21:50
Post #6

Правь статус, ####!111
**************
Group: Металариец
Posts: 4,468
Releases: 17
From: Holland
On Forums: 15 years 2 months
Thanks: 1463 time(s)
Netherlands


QUOTE(Samaritianin @ Sep 19 2020, 04:32:17) *
Ну так зачем срач устраиваешь раньше времени?На арее редактировать можно только после того как альбом пройдет
модерацию.Или я сам не разберусь с тегами без твоей помощи?)))

Человек вроде максимально вежливо и с подчеркиванием субъективности описал свои впечатления. У меня тоже плюс минус подобные сложились, по духу бы к бруталу не причислил. Вроде [мат->бан] не было. Просто обсуждение жанровых рамок музыки.
Go to the top of the page
  Insert nick Quick quote
+Quote Post
post Nov 18 2020, 05:56:59
Post #7

i listen to black metal
**************
Group: Металариец
Posts: 3,036
Releases: 138
From: Москва
On Forums: 14 years 9 months
Thanks: 2325 time(s)
Russian Federation


есть 20% брутала
Go to the top of the page
  Insert nick Quick quote
+Quote Post

Reply to this topicStart new topic
2 User(s) are reading this topic (2 Guests and 0 Anonymous Users)
0 Members:

 



- Lo-Fi Version Support form
Copyrights and abuse reports form
Time is now: 25th September 2021 - 05:14:16