Welcome Guest ( Log In | Register )

> И неформату есть предел.

Рэп/хип-хоп/шансон/поп удаляются. Для них есть свои порталы.

 
Reply to this topicStart new topic
> Haryon & Thangorodrim - Under The Reign Of A New Power (Split) [split] (2018), Dungeon Synth | Dungeon Synth (D5)
post Sep 19 2020, 12:15:55
Post #1

Dark Ambient Shoujo
**********
Group: Металариец
Posts: 1,331
Releases: 2
On Forums: 11 years 11 months
Thanks: 769 time(s)
Russian Federation


(IMG:http://metalarea.org/images/audiocovers/2020_Sep/acov_tid341760_thumb.jpg)

*Artist: Haryon & Thangorodrim
*Album: Under The Reign Of A New Power (Split) [split]
*Year: 2018
*Genre: Dungeon Synth | Dungeon Synth
*Country: Germany (IMG:http://metalarea.org/forum/style_images/flags/Germany.png) | United States (IMG:http://metalarea.org/forum/style_images/flags/United%20States.png)
*Format: mp3@CBR320kbps
*Size: 79MB

Tracklist:
1. Thangorodrim - Durin - The Deathless 9:12
2. Thangorodrim - Dimrill Dale - The Place of Shadowed Streams 8:55
3. Haryon - Thranduil - The King of Mirkwood 11:41
4. Haryon - Gondor - Amon Dîn 4:28
******************************
Total playing time: 34:16



Technical info
(IMG:http://metalarea.org/images/spectrogram/2020_Sep/0c966e53f9d2c3f8b06d6693dca69139.png)
Input File: Haryon - Thangorodrim-Haryon - Under the Reign of a New Power - 04 Haryon - Gondor - Amon Dîn.mp3
Channels : 2
Sample Rate : 44100
Precision : 16-bit
Duration : 00:04:28.08 = 11822460 samples = 20106.2 CDDA sectors
File Size : 10.8M
Bit Rate : 323k
Sample Encoding: MPEG audio (layer I, II or III)
Comments :
Title=Haryon - Gondor - Amon Dîn
Artist=Haryon
Album=Thangorodrim/Haryon - Under the Reign of a New Power
Tracknumber=4
Year=2018



Register


Go to the top of the page
  Insert nick Quick quote
+Quote Post
post Sep 19 2020, 17:35:05
Post #2

Dark Ambient Shoujo
**********
Group: Металариец
Posts: 1,331
Releases: 2
On Forums: 11 years 11 months
Thanks: 769 time(s)
Russian Federation


FLAC
Register


Thanks:
Go to the top of the page
  Insert nick Quick quote
+Quote Post
post Sep 19 2020, 17:43:03
Post #3

Правь статус, ####!111
**************
Group: Металариец
Posts: 47,736
Releases: 757
On Forums: 11 years 6 months
Thanks: 41168 time(s)
Russian Federation


Thangorodrim - один из топовейших современных данж синт проектов. (IMG:style_emoticons/default/pray.gif)


Thanks:
Go to the top of the page
  Insert nick Quick quote
+Quote Post
post Sep 19 2020, 18:33:42
Post #4
BAN
Banned till
Dec 22 2020, 18:54:06



ЦИТАТА(vosmidesijatye @ Sep 19 2020, 17:43:03) *
Thangorodrim - один из топовейших современных данж синт проектов. (IMG:style_emoticons/default/pray.gif)
ну ну одноглазый король в королевстве слепых.твой топ самнабулический как и дум и все остальное.
Go to the top of the page
  Insert nick Quick quote
+Quote Post
post Sep 22 2020, 13:26:42
Post #5

Zero Tolerance
*****
Group: Металариец
Posts: 437
Releases: 0
On Forums: 8 years 2 months
Thanks: 77 time(s)
Unknown


Феерическая куета.
Go to the top of the page
  Insert nick Quick quote
+Quote Post

Reply to this topicStart new topic
1 User(s) are reading this topic (1 Guests and 0 Anonymous Users)
0 Members:

 



- Lo-Fi Version Support form
Copyrights and abuse reports form
Time is now: 4th December 2020 - 16:08:54