Welcome Guest ( Log In | Register )

> Releases Upload / Добавление релизов

Добавить релиз тут / Click here to add release
Рекомендованные обменники / Recommended file shares

 
Reply to this topicStart new topic
> Ôros Kaù - Imperii Templum Aries (2020), Black Metal
post Sep 21 2020, 07:55:17
Post #1

Правь статус, ####!111
**************
Group: Металариец
Posts: 23,564
Releases: 16492
From: Г.Харьков
On Forums: 8 years 5 months
Thanks: 311110 time(s)
Unknown


(IMG:http://metalarea.org/images/audiocovers/2020_Sep/acov_tid341801_thumb.jpg)

*Artist: Ôros Kaù
*Album: Imperii Templum Aries
*Year: 2020
*Genre: Black Metal
*Country: Belgium (IMG:http://metalarea.org/forum/style_images/flags/Belgium.png)
*Format: mp3@CBR320kbps
*Size: 92MB

Tracklist:
1. Zepar 04:54
2. Shax 05:08
3. Belial 04:43
4. AešmaDaeva 03:50
5. Furfur 03:47
6. Forneus 05:10
7. Leraje 04:57
8. Set the Controls for the Heart of the Sun (Pink Floyd cover) 07:32
******************************
Total playing time: 40:01



Technical info
(IMG:http://metalarea.org/images/spectrogram/2020_Sep/95247d1b82c4a3078b702d8a47064145.png)
Input File: 06 - Forneus.mp3
Channels : 2
Sample Rate : 44100
Precision : 16-bit
Duration : 00:05:08.50 = 13604850 samples = 23137.5 CDDA sectors
File Size : 12.4M
Bit Rate : 322k
Sample Encoding: MPEG audio (layer I, II or III)
Comments :
Title=Forneus
Artist=Ôros Kaù
Album=Imperii Templum Aries
Tracknumber=06/08
Year=2020
Genre=Black Metal



Register


Go to the top of the page
  Insert nick Quick quote
+Quote Post

Reply to this topicStart new topic
1 User(s) are reading this topic (1 Guests and 0 Anonymous Users)
0 Members:

 



- Lo-Fi Version Support form
Copyrights and abuse reports form
Time is now: 29th October 2020 - 17:13:08