Welcome Guest ( Log In | Register )

> И неформату есть предел.

Рэп/хип-хоп/шансон/поп удаляются. Для них есть свои порталы.

> Acid Moon And The Pregnant Sun - Speakin' Of The Devil (2020), 60´s Acid/Psychedelic Rock
post Sep 21 2020, 13:46:35
Post #1

Правь статус, ####!111
**************
Group: Металариец
Posts: 47,687
Releases: 756
On Forums: 11 years 5 months
Thanks: 41061 time(s)
Russian Federation


(IMG:http://metalarea.org/images/audiocovers/2020_Sep/acov_tid341812_thumb.jpg)

*Artist: Acid Moon And The Pregnant Sun
*Album: Speakin' Of The Devil
*Year: 2020
*Genre: 60´s Acid/Psychedelic Rock
*Country: Israel (IMG:http://metalarea.org/forum/style_images/flags/Israel.png)
*Format: mp3@CBR320kbps
*Size: 89MB

Tracklist:
1. I Love You 03:56
2. Speakin' Of The Devil 08:53
3. Creatures Of The Abyss 07:11
4. Wide 05:59
5. Bright Sky At Night 03:12
6. Save Me 05:47
7. Sparrow 07:28
******************************
Total playing time: 42:26



Technical info
(IMG:http://metalarea.org/images/spectrogram/2020_Sep/9551b0dae29e2d2ce8cfa4714f073315.png)
Input File: 1. Acid Moon and the Pregnant Sun - I Love You.mp3
Channels : 2
Sample Rate : 44100
Precision : 16-bit
Duration : 00:03:56.68 = 10437676 samples = 17751.1 CDDA sectors
File Size : 9.52M
Bit Rate : 322k
Sample Encoding: MPEG audio (layer I, II or III)
Comments :
Title=I Love You
Artist=Acid Moon and the Pregnant Sun
Album=Speakin' of the Devil
Tracknumber=1/7
Year=2020
Genre=Рок
Discnumber=1/1



Register


Go to the top of the page
  Insert nick Quick quote
+Quote Post
 
Start new topic
Replies (1 - 1)
post Sep 22 2020, 11:59:49
Post #2

Правь статус, ####!111
**************
Group: Металариец
Posts: 47,687
Releases: 756
On Forums: 11 years 5 months
Thanks: 41061 time(s)
Russian Federation


Очень душевный и аутентичный тому времени материал, прям не верится, что записано в году нонешнем.

Особый шарм придает релизу специфический местами надтреснутый и как будто нестройный вокал.
Go to the top of the page
  Insert nick Quick quote
+Quote Post

Reply to this topicStart new topic
1 User(s) are reading this topic (1 Guests and 0 Anonymous Users)
0 Members:

 



- Lo-Fi Version Support form
Copyrights and abuse reports form
Time is now: 27th November 2020 - 18:51:37