Welcome Guest ( Log In | Register )

> Avoidance - God Of Damnation (2020), Melodic Death Metal
post Sep 24 2020, 15:36:43
Post #1

Правь статус, ####!111
**************
Group: Металариец
Posts: 25,223
Releases: 17976
From: Г.Харьков
On Forums: 8 years 9 months
Thanks: 351677 time(s)
Unknown


(IMG:http://metalarea.org/images/audiocovers/2020_Sep/acov_tid341915_thumb.jpg)

*Artist: Avoidance
*Album: God Of Damnation
*Year: 2020
*Genre: Melodic Death Metal
*Country: Hungary (IMG:http://metalarea.org/forum/style_images/flags/Hungary.png)
*Format: mp3@CBR320kbps
*Size: 134MB

Tracklist:
1. Deathcall of an Evil World Pt. 1 04:58
2. Deathcall of an Evil World Pt. 2 06:08
3. Black Night Terror 04:38
4. Shadows of Graveyard 05:34
5. Deathnight 05:08
6. Distortion of Reality 06:58
7. Ritual of Wild 06:50
8. Black Light 04:26
9. Totem of Newage 04:14
10. Insomnia 09:30
******************************
Total playing time: 58:24




Extended info
Bence Bajnáczki Bass
Leif Ludvigsson Drums
Vincent Smith Guitars (lead)
Martin Rendes Guitars (rhythm)
Gergő Balla Keyboards


Technical info
(IMG:http://metalarea.org/images/spectrogram/2020_Sep/f86026392b98e3485658fee3922ab56e.png)
Input File: Avoidance - God of Damnation - 04 Shadows of GraveYard.mp3
Channels : 2
Sample Rate : 44100
Precision : 16-bit
Duration : 00:05:34.12 = 14734868 samples = 25059.3 CDDA sectors
File Size : 13.4M
Bit Rate : 322k
Sample Encoding: MPEG audio (layer I, II or III)
Comments :
Title=Shadows of GraveYard
Artist=Avoidance
Album=God of Damnation
Tracknumber=4
Year=2020



Register


Go to the top of the page
  Insert nick Quick quote
+Quote Post
 
Start new topic
Replies (1 - 6)
post Sep 26 2020, 04:07:52
Post #2

Ъ
**************
Group: Металариец
Posts: 10,479
Releases: 9
On Forums: 12 years 1 month
Thanks: 2150 time(s)
Sweden


Судя по превью - неплохой ФМДМ, правда мы это уже слышали много раз от самих финов, да и лично для меня фмдм не актуален.
Go to the top of the page
  Insert nick Quick quote
+Quote Post
post Sep 26 2020, 07:11:44
Post #3

Common dweller of hell
**************
Group: Металариец
Posts: 3,579
Releases: 11
From: Dnipro
On Forums: 12 years 7 months
Thanks: 1383 time(s)
Ukraine


На обложке инопланетный лось (IMG:style_emoticons/default/15.gif)

ЦИТАТА(DenisKov @ Sep 26 2020, 06:07:52) *
лично для меня фмдм не актуален.

А что актуально, какие сейчас мировые трэнды?
Наверное СMDM - Congolese Melodic Death Metal? (IMG:style_emoticons/default/25.gif)
(IMG:https://s6.pikabu.ru/post_img/2015/03/20/0/1426800348_1605448258.jpg)
Go to the top of the page
  Insert nick Quick quote
+Quote Post
post Sep 26 2020, 13:06:51
Post #4

hearer & reader
**************
Group: Металариец
Posts: 9,481
Releases: 169
From: Moscow
On Forums: 13 years 5 months
Thanks: 10374 time(s)
Russian Federation


За час этот гитарист запиликает насмерть (IMG:style_emoticons/default/fear.gif)


Thanks:
(1) kranger,
Go to the top of the page
  Insert nick Quick quote
+Quote Post
post Oct 21 2020, 01:30:59
Post #5

добрый мизантроп
**************
Group: Металариец
Posts: 2,064
Releases: 1
From: Минск
On Forums: 10 years 3 months
Thanks: 992 time(s)
Madagascar


Very Admirable MDM
Go to the top of the page
  Insert nick Quick quote
+Quote Post
post Nov 10 2020, 19:48:15
Post #6

melofags sniper
**************
Group: Металариец
Posts: 6,050
Releases: 0
On Forums: 13 years 3 days
Thanks: 6395 time(s)
Unknown


QUOTE(Storky @ Oct 21 2020, 01:30:59) *
Very Admirable MDM

(IMG:style_emoticons/default/hmm.gif)
Go to the top of the page
  Insert nick Quick quote
+Quote Post
post Nov 23 2020, 05:13:10
Post #7

i listen to black metal
**************
Group: Металариец
Posts: 2,827
Releases: 136
From: Москва-Лианозово
On Forums: 14 years 2 months
Thanks: 2269 time(s)
Russian Federation


вокалист не для меня))))
Go to the top of the page
  Insert nick Quick quote
+Quote Post

Reply to this topicStart new topic
1 User(s) are reading this topic (1 Guests and 0 Anonymous Users)
0 Members:

 



- Lo-Fi Version Support form
Copyrights and abuse reports form
Time is now: 6th March 2021 - 05:59:15