Welcome Guest ( Log In | Register )

> Releases Upload / Добавление релизов

Добавить релиз тут / Click here to add release
Рекомендованные обменники / Recommended file shares

> Seven Horns - Endless Deathward Procession (2020), Melodic Death/Thrash Metal
post Sep 24 2020, 18:32:48
Post #1

Правь статус, ####!111
**************
Group: Металариец
Posts: 23,912
Releases: 16804
From: Г.Харьков
On Forums: 8 years 6 months
Thanks: 319622 time(s)
Unknown


(IMG:http://metalarea.org/images/audiocovers/2020_Sep/acov_tid341917_thumb.jpg)

*Artist: Seven Horns
*Album: Endless Deathward Procession
*Year: 2020
*Genre: Melodic Death/Thrash Metal
*Country: United States (IMG:http://metalarea.org/forum/style_images/flags/United%20States.png)
*Format: mp3@CBR320kbps
*Size: 141MB

Tracklist:
1. Prelude
2. Welcome to the Human Race
3. Acolytes to the Backward Progression
4. The Kings of Revelations
5. Disciples of the Grave
6. Purifyr
7. Interlude
8. By Fire Light
9. Advent Paradigm
10. Beneath the Current of Passing Time
11. Descendants of the Fall
12. Crosses
******************************
Total playing time: 1:00:21




Technical info
(IMG:http://metalarea.org/images/spectrogram/2020_Sep/13a9a0de3a44730e873aa93fab5eb55b.png)
Input File: 04 - The Kings of Revelations.mp3
Channels : 2
Sample Rate : 44100
Precision : 16-bit
Duration : 00:05:12.73 = 13791349 samples = 23454.7 CDDA sectors
File Size : 12.7M
Bit Rate : 326k
Sample Encoding: MPEG audio (layer I, II or III)
Comments :
Title=The Kings of Revelations
Artist=Seven Horns
Album=Endless Deathward Procession
Tracknumber=4
Year=2020



Register


Go to the top of the page
  Insert nick Quick quote
+Quote Post
 
Start new topic
Replies (1 - 2)
post Sep 26 2020, 03:58:28
Post #2

Ъ
**************
Group: Металариец
Posts: 10,343
Releases: 9
On Forums: 11 years 10 months
Thanks: 2101 time(s)
Sweden


Третьесорт.


Thanks:
(1) kranger,
Go to the top of the page
  Insert nick Quick quote
+Quote Post
post Oct 7 2020, 10:59:32
Post #3

Маньяк
**********
Group: Металариец
Posts: 1,063
Releases: 4
From: Харьков
On Forums: 12 years 3 months
Thanks: 386 time(s)
Ukraine


неплохое музло, если расслушать.
Go to the top of the page
  Insert nick Quick quote
+Quote Post

Reply to this topicStart new topic
1 User(s) are reading this topic (1 Guests and 0 Anonymous Users)
0 Members:

 



- Lo-Fi Version Support form
Copyrights and abuse reports form
Time is now: 24th November 2020 - 10:59:45