Welcome Guest ( Log In | Register )

> Releases Upload / Добавление релизов

Добавить релиз тут / Click here to add release
Рекомендованные обменники / Recommended file shares

> Nietzu - Memoriam Sanguinis (2020), Atmospheric/Post-Black Metal
post Sep 26 2020, 14:14:53
Post #1

Правь статус, ####!616
**************
Group: Металариец
Posts: 5,403
Releases: 3936
From: 55°35’N 38°08’E
On Forums: 12 years 4 months
Thanks: 73718 time(s)
Unknown


(IMG:https://metalarea.org/images/audiocovers/2020_Sep/acov_tid341970_thumb.jpg)

*Artist: Nietzu
*Album: Memoriam Sanguinis
*Year: 2020
*Genre: Atmospheric/Post-Black Metal
*Country: United Kingdom (IMG:https://metalarea.org/forum/style_images/flags/United%20Kingdom.png)
*Format: mp3@CBR320kbps
*Size: 93MB

Tracklist:
1.Bitter Clay 07:18
2.Hearthweru 04:49
3.Funereal Exile 02:33
4.Antiqua Ligno 03:49
5.The Shrike 05:27
6.Carcharoth 04:38
7.Sigil 07:29
8.Invert Lazuli 04:14
******************************
Total playing time: 40:17



Technical info
(IMG:https://metalarea.org/images/spectrogram/2020_Sep/089b6b453a2508b88e07c51717861ef9.png)
Input File: 01 Bitter Clay.mp3
Channels : 2
Sample Rate : 44100
Precision : 16-bit
Duration : 00:07:18.83 = 19352491 samples = 32912.4 CDDA sectors
File Size : 17.6M
Bit Rate : 321k
Sample Encoding: MPEG audio (layer I, II or III)
Comments :
Title=Bitter Clay
Artist=Nietzu
Album=Memoriam Sanguinis
Tracknumber=1
Year=2020
Genre=Black Metal



Register


Go to the top of the page
  Insert nick Quick quote
+Quote Post
 
Start new topic
Replies (1 - 2)
post Nov 21 2020, 17:48:48
Post #2

добрый мизантроп
***********
Group: Металариец
Posts: 1,843
Releases: 0
From: Минск
On Forums: 10 years 1 week
Thanks: 917 time(s)
Madagascar


NIce one
Go to the top of the page
  Insert nick Quick quote
+Quote Post
post Nov 21 2020, 18:34:36
Post #3

Два Литра
**
Group: Завсегдатай
Posts: 158
Releases: 0
On Forums: 3 months 10 hours
Thanks: 94 time(s)
Unknown


Хорошо, но на раз и не более...
Go to the top of the page
  Insert nick Quick quote
+Quote Post

Reply to this topicStart new topic
2 User(s) are reading this topic (2 Guests and 0 Anonymous Users)
0 Members:

 



- Lo-Fi Version Support form
Copyrights and abuse reports form
Time is now: 25th November 2020 - 09:25:36