Welcome Guest ( Log In | Register )

> Akral Necrosis - The Greater Absence (2020), Black Metal (D)
post Sep 27 2020, 09:38:00
Post #1

Правь статус, ####!616
**************
Group: Металариец
Posts: 5,408
Releases: 3938
From: 55°35’N 38°08’E
On Forums: 12 years 4 months
Thanks: 73870 time(s)
Unknown


(IMG:https://metalarea.org/images/audiocovers/2020_Sep/acov_tid341997_thumb.jpg)

*Artist: Akral Necrosis
*Album: The Greater Absence
*Year: 2020
*Genre: Black Metal
*Country: Romania (IMG:https://metalarea.org/forum/style_images/flags/Romania.png)
*Format: mp3@CBR320kbps
*Size: 151MB

Tracklist:
1.Silent Altar 05:08
2.Oldd Mirror 04:55
3.Intonation 05:18
4.In Nightmare Shades 04:48
5.Man in the Cauldron 05:12
6.Third Curse 06:21
7.Revamping the Inside 08:11
8.Plaguebound 07:53
9.I See the Bright Lights 08:01
10.Damnatio Memoriae 09:35
******************************
Total playing time: 1:05:22




Technical info
(IMG:https://metalarea.org/images/spectrogram/2020_Sep/cb73bf035cefcd358571f6034df861a8.png)
Input File: 01 Silent Altar.mp3
Channels : 2
Sample Rate : 44100
Precision : 16-bit
Duration : 00:05:08.62 = 13610098 samples = 23146.4 CDDA sectors
File Size : 12.5M
Bit Rate : 324k
Sample Encoding: MPEG audio (layer I, II or III)
Comments :
Title=Silent Altar
Artist=Akral Necrosis
Album=The Greater Absence
Tracknumber=1
Year=2020
Genre=Black Metal



Register


Go to the top of the page
  Insert nick Quick quote
+Quote Post
 
Start new topic
Replies (1 - 3)
post Sep 30 2020, 07:09:01
Post #2

Четыре Литра
****
Group: Металариец
Posts: 343
Releases: 0
From: Vilnius
On Forums: 13 years 9 months
Thanks: 112 time(s)
Lithuania


Весьма приятственный релиз,-как-то от румын не ждешь ничего в данном жанре,-так и не обратил бы внимания, если бы Ю-туб случайно не подсунул. Приятно удивили-Вроде ничего особенного, довольно быстрый блэк, не лишенный мелодий, но вот радует то, что пытаются сделать что-то свое, не пытаясь копировать кого-то конкретного. Не знаю, сколько проживет в плэйлисте, но точно больше пары прослушиваний
Решил даже старые релизы послушать )
Go to the top of the page
  Insert nick Quick quote
+Quote Post
post Nov 21 2020, 17:56:39
Post #3

добрый мизантроп
***********
Group: Металариец
Posts: 1,859
Releases: 0
From: Минск
On Forums: 10 years 2 weeks
Thanks: 918 time(s)
Madagascar


nice atmosperic bm
Go to the top of the page
  Insert nick Quick quote
+Quote Post
post Nov 23 2020, 05:41:24
Post #4

i listen to black metal
**************
Group: Металариец
Posts: 2,687
Releases: 132
From: Москва-Лианозово
On Forums: 13 years 11 months
Thanks: 2169 time(s)
Russian Federation


16 год был замечательным!!!
и тут всё что я люблю)))
Go to the top of the page
  Insert nick Quick quote
+Quote Post

Reply to this topicStart new topic
2 User(s) are reading this topic (2 Guests and 0 Anonymous Users)
0 Members:

 



- Lo-Fi Version Support form
Copyrights and abuse reports form
Time is now: 29th November 2020 - 00:19:34