Welcome Guest ( Log In | Register )

> И неформату есть предел.

Рэп/хип-хоп/шансон/поп удаляются. Для них есть свои порталы.

 
Reply to this topicStart new topic
> Vrimuot - O Tempora, O Mores! (2020), Neofolk/Darkfolk
post Sep 28 2020, 16:12:14
Post #1

Мегаманьяк
***********
Group: Металариец
Posts: 1,531
Releases: 263
On Forums: 12 years 2 weeks
Thanks: 5498 time(s)
Russian Federation


(IMG:http://metalarea.org/images/audiocovers/2020_Sep/acov_tid342044_thumb.jpg)

*Artist: Vrimuot
*Album: O Tempora, O Mores!
*Year: 2020
*Genre: Neofolk/Darkfolk
*Country: Germany (IMG:http://metalarea.org/forum/style_images/flags/Germany.png)
*Format: mp3@CBR320kbps
*Size: 116MB

Tracklist:
01. Aufbruch 08:08
02. Nymphaea Alba 09:18
03. Palingenese 07:36
04. Erwachen 07:43
05. Wolffsangel 08:12
06. Ewiger Mond 09:28
******************************
Total playing time: 50:25



Preview 3

Extended info


Vrîmuot is:
T.S. aka Lupus Viridis - compositions, all instruments, vocals

"O Tempora, O Mores!" is the debut album of Germany’s most promising new neofolk artist: Vrîmuot! While staying true to the genre's core aesthetics and stylings, Vrîmuot’s Mythopoeic Darkfolk rather equals a reinforcement and update of old neofolk values.

Vrîmuot from the fabled Teutoburg Forest, Germany, infuses fresh blood into the time-honored body of neofolk. This is made clear - resoundingly so - by "O Tempora, O Mores!" (Cicero: "Oh the times! Oh the customs!"), the project's first album.

Vrîmuot (Middle High German for "candour") was founded by composer, multi-instrumentalist and singer T.S.. While staying true to the genre's core aesthetics and stylings, his music rather equals a reinforcement and update of old neofolk values, created the DIY-way without any digital tools and unfolding in unusually long, intense narratives of crafty complexity.

Describing his venture as "Mythopoeic Darkfolk", T.S. wields his metaphorical heft to cathartic effect, conveying a positive message. "It is only through self-reflection that we transcend mundane existence, lighting a flame that strengthens and warms us. A flame of hope. An eternal flame."

"O Tempora, O Mores!" is "a polemic put to song", he elaborates, "based on personal experience of loss and recapture but also relatable to modernity and its inherent ills." Above all though, his intent is to evoke feelings in the spirit of the Romantics, escaping the present "samsara" to seek enlightenment, "the higher aim our natural being is striving for."

Likewise, the artwork of "O Tempora, O Mores!" is centered around 19th century sculptor Gotthard Sonnenfeld's statue "Besiegt" ("vanquished"), with medieval woodcuts and runes representing each tune and its "riddle" …

"O Tempora, O Mores!" was mastered by Markus Stock (Empyrium) and is available as 2CD hardcover book edition (18x18cm, 36 pages with lush artwork and a 18-minutes bonus CD with two exclusive songs) and LP.


***FLAC-Rip***


Technical info
(IMG:http://metalarea.org/images/spectrogram/2020_Sep/f6d52b5c46c1bf48a41597a8c1e2602c.png)
Input File: 01-Aufbruch.mp3
Channels : 2
Sample Rate : 44100
Precision : 16-bit
Duration : 00:08:08.26 = 21532178 samples = 36619.4 CDDA sectors
File Size : 19.5M
Bit Rate : 320k
Sample Encoding: MPEG audio (layer I, II or III)
Comments :
Title=Aufbruch
Artist=Vrîmuot
Album=O tempora, O mores!
Tracknumber=1
Year=2020
Genre=Neofolk / Darkfolk



Register


Go to the top of the page
  Insert nick Quick quote
+Quote Post
post Sep 29 2020, 14:36:46
Post #2

Мегаманьяк
***********
Group: Металариец
Posts: 1,531
Releases: 263
On Forums: 12 years 2 weeks
Thanks: 5498 time(s)
Russian Federation


FLAC tracks
Register


Thanks:
Go to the top of the page
  Insert nick Quick quote
+Quote Post

Reply to this topicStart new topic
1 User(s) are reading this topic (1 Guests and 0 Anonymous Users)
0 Members:

 



- Lo-Fi Version Support form
Copyrights and abuse reports form
Time is now: 28th November 2020 - 12:34:49