Welcome Guest ( Log In | Register )

> Vonlaus - Röð Slæmra Ákvarðana [ep] (2020), Black Metal
post Oct 3 2020, 17:46:10
Post #1

Правь статус, ####!616
**************
Group: Металариец
Posts: 7,184
Releases: 5615
From: 55°35’N 38°08’E
On Forums: 13 years 3 months
Thanks: 102356 time(s)
Unknown


(IMG:https://metalarea.org/images/audiocovers/2020_Oct/acov_tid342218_thumb.jpg)

*Artist: Vonlaus
*Album: Röð Slæmra Ákvarðana [ep]
*Year: 2020
*Genre: Black Metal
*Country: Iceland (IMG:https://metalarea.org/forum/style_images/flags/Iceland.png)
*Format: mp3@CBR320kbps
*Size: 46MB

Tracklist:
1.Gjaldþrot 04:16
2.Gegn mér 04:21
3.Af ólyfjan og drykkju 04:59
4.Týndur í Reykjavík 05:29
******************************
Total playing time: 19:05




Technical info
(IMG:https://metalarea.org/images/spectrogram/2020_Oct/62e31c9901d2885fbcd8cf2490296cc6.png)
Input File: 01 Gjaldþrot.mp3
Channels : 2
Sample Rate : 44100
Precision : 16-bit
Duration : 00:04:16.33 = 11304153 samples = 19224.8 CDDA sectors
File Size : 10.5M
Bit Rate : 327k
Sample Encoding: MPEG audio (layer I, II or III)
Comments :
Title=Gjaldþrot
Artist=Vonlaus
Album=Röð slæmra ákvarðana
Tracknumber=1
Year=2020
Genre=Black Metal



Register


Go to the top of the page
  Insert nick Quick quote
+Quote Post
 
Start new topic
Replies (1 - 2)
post Oct 7 2020, 08:37:50
Post #2

I hate you all
**************
Group: Металариец
Posts: 2,708
Releases: 82
From: Ukraine
On Forums: 14 years 5 months
Thanks: 6849 time(s)
Ukraine




Thanks:
(1) Occultas,
Go to the top of the page
  Insert nick Quick quote
+Quote Post
post Oct 8 2020, 14:53:04
Post #3

0%Tolerance
**********
Group: Металариец
Posts: 1,372
Releases: 0
On Forums: 9 years 4 weeks
Thanks: 251 time(s)
Unknown


Слабо. Какой-то недоатмосферик/недоблэкмитал. Деградируют исландосы в блэкмитале.
Go to the top of the page
  Insert nick Quick quote
+Quote Post

Reply to this topicStart new topic
1 User(s) are reading this topic (1 Guests and 0 Anonymous Users)
0 Members:

 



- Lo-Fi Version Support form
Copyrights and abuse reports form
Time is now: 16th October 2021 - 04:03:09