Welcome Guest ( Log In | Register )

> Releases Upload / Добавление релизов

Добавить релиз тут / Click here to add release
Рекомендованные обменники / Recommended file shares

> The Progressive Souls Collective - Sonic Birth (2020), Progressive Rock/Metal
post Oct 6 2020, 16:16:18
Post #1

Правь статус, ####!111
**************
Group: Металариец
Posts: 3,313
Releases: 2990
From: Одесса
On Forums: 12 years 5 months
Thanks: 30321 time(s)
Ukraine


(IMG:http://metalarea.org/images/audiocovers/2020_Oct/acov_tid342282_thumb.jpg)

*Artist: The Progressive Souls Collective
*Album: Sonic Birth
*Year: 2020
*Genre: Progressive Rock/Metal
*Country: United States (IMG:http://metalarea.org/forum/style_images/flags/United%20States.png)
*Format: mp3@CBR320kbps
*Size: 147MB

Tracklist:
1. Metature 04:58
2. Comfortable Darkness 02:49
3. Killing True Beliefs 06:27
4. Fractional Emotion 06:05
5. A Formula For Happiness 06:50
6. Inner Circle 02:10
7. You And Me Alone 05:12
8. Hurt 04:39
9. Destiny Inc. 15:37
10. Mind Treasures 01:44
11. With Others 06:19
******************************
Total playing time: 1:02:50

Extended info
The debut album "Sonic Birth" by The Progressive Souls Collective (TPSC) is special in many ways: Florian Zepf (guitar) and the driving force at TPSC could convince his international prog music colleagues Aquiles Priester (ex-Angra & Tony MacAlpine), Conner Green (Haken), Kevin Moore (ex-Dream Theater, O.S.I., Chroma Key) as well as Luis Conte (Phil Collins) to work together on the album.As a very special guest, keyboard maestro Derek Sherinian (Sons of Apollo, Ex-Dream Theater, etc.) contributed all keyboard parts.The collaboration of the different characters resulted in "Sonic Birth", an extraordinary Prog-Metal album, which meets even the highest demands.








Technical info
(IMG:http://metalarea.org/images/spectrogram/2020_Oct/17e3878587b4c427afa7319e8bd42b74.png)
Input File: 06. Inner Circle.mp3
Channels : 2
Sample Rate : 44100
Precision : 16-bit
Duration : 00:02:10.70 = 5763914 samples = 9802.57 CDDA sectors
File Size : 5.25M
Bit Rate : 321k
Sample Encoding: MPEG audio (layer I, II or III)
Comments :
Title=Inner Circle
Artist=The Progressive Souls Collective
Album=Sonic Birth
Tracknumber=6
Year=2020
Genre=Progressive Rock/Metal



Register


Go to the top of the page
  Insert nick Quick quote
+Quote Post
 
Start new topic
Replies (1 - 1)
post Oct 7 2020, 08:57:48
Post #2

hearer & reader
**************
Group: Металариец
Posts: 9,209
Releases: 162
From: Moscow
On Forums: 13 years 2 months
Thanks: 9821 time(s)
Russian Federation


https://music.yandex.ru/album/11603186
вкусно
Go to the top of the page
  Insert nick Quick quote
+Quote Post

Reply to this topicStart new topic
1 User(s) are reading this topic (1 Guests and 0 Anonymous Users)
0 Members:

 



- Lo-Fi Version Support form
Copyrights and abuse reports form
Time is now: 24th November 2020 - 11:12:46