Welcome Guest ( Log In | Register )

> Releases Upload / Добавление релизов

Добавить релиз тут / Click here to add release
Рекомендованные обменники / Recommended file shares

> Cosmic Rover - Spitting Fire (2020), Stoner Metal
post Oct 6 2020, 18:28:56
Post #1

Правь статус, ####!111
**************
Group: Металариец
Posts: 3,313
Releases: 2990
From: Одесса
On Forums: 12 years 5 months
Thanks: 30321 time(s)
Ukraine


(IMG:http://metalarea.org/images/audiocovers/2020_Oct/acov_tid342286_thumb.jpg)

*Artist: Cosmic Rover
*Album: Spitting Fire
*Year: 2020
*Genre: Stoner Metal
*Country: Brazil (IMG:http://metalarea.org/forum/style_images/flags/Brazil.png)
*Format: mp3@CBR320kbps
*Size: 85MB

Tracklist:
1. Our Tattoos 04:29
2. Yesterday Was Crazy 02:25
3. Cosmic Rover 03:50
4. Spitting Fire 03:12
5. Electrify 03:52
6. Bright Highway 03:29
7. Never Forget 04:08
8. Lessons in a Bottle 04:11
9. Mushroom Memories 02:59
10. Space Mother Fucker 02:56
******************************
Total playing time: 35:31



Extended info
Line - up:

Rodrigo Felix - Drums
Rick Rocha - Guitars
Edson Graceffi - Vocals, Drums (Panzer, Reviolence, ex-Hefestos, ex-Punch, ex-Chasing Fear)

(IMG:https://www.metal-archives.com/images/3/5/4/0/3540456340_photo.jpg?1954)


Technical info
(IMG:http://metalarea.org/images/spectrogram/2020_Oct/a360d5a87c4d4810bcf540a98c372dc8.png)
Input File: 06. Bright Highway.mp3
Channels : 2
Sample Rate : 44100
Precision : 16-bit
Duration : 00:03:29.62 = 9244286 samples = 15721.6 CDDA sectors
File Size : 8.45M
Bit Rate : 323k
Sample Encoding: MPEG audio (layer I, II or III)
Comments :
Title=Bright Highway
Artist=Cosmic Rover
Album=Spitting Fire
Tracknumber=6
Year=2019
Genre=Stoner Metal



Register


Go to the top of the page
  Insert nick Quick quote
+Quote Post
 
Start new topic
Replies (1 - 1)
post Oct 7 2020, 10:04:45
Post #2

Два Литра
**
Group: Завсегдатай
Posts: 108
Releases: 0
On Forums: 2 months 4 days
Thanks: 40 time(s)
Russian Federation


А где стоунер-то? Среднетемпавый хевяк с хриплым вокалюгой, такое себе, не нра, тупняка нет.
Go to the top of the page
  Insert nick Quick quote
+Quote Post

Reply to this topicStart new topic
1 User(s) are reading this topic (1 Guests and 0 Anonymous Users)
0 Members:

 



- Lo-Fi Version Support form
Copyrights and abuse reports form
Time is now: 24th November 2020 - 11:11:45