Welcome Guest ( Log In | Register )

> Правила / Rules

Тут только для чтения лежат низкобитрейтные (<192kbps) релизы, для которых есть аналоги в высокобитрейтных форумах.

Here goes (and stand in read only mode) low bitrate releases (<192kbps) which were already replaced by high bitrate releases in corresponding forums.

Причина закрытия (Абигор 11-10-2020): Black Metamorphosis - Black Metamorphosis [demo] (2020)
 
Closed TopicStart new topic
> Black Metamorphosis - Black Metamorphosis [demo] (2020), Raw Black Metal
post Oct 7 2020, 03:52:01
Post #1

Malum dominus omnium
**
Group: Завсегдатай
Posts: 167
Releases: 98
On Forums: 10 months 3 weeks
Thanks: 1982 time(s)
Vatican City


(IMG:http://metalarea.org/images/audiocovers/2020_Oct/acov_tid342301_thumb.jpg)

*Artist: Black Metamorphosis
*Album: Black Metamorphosis [demo]
*Year: 2020
*Genre: Raw Black Metal
*Country: United States (IMG:http://metalarea.org/forum/style_images/flags/United%20States.png)
*Format: mp3@CBR320kbps
*Size: 55MB

Tracklist:
1. Introduction 2:09
2. A Memory Of That Final Night 5:03
3. The Eternal Dance Of Mourning & Death 4:53
4. Myriad Of Dark Forms & Shadow 6:38
5. Thou Riseth At Night & Dawn 5:23
******************************
Total playing time: 24:06

YouTube
Metal Archives

Extended info
Recorded January - February MMXX on Analog four track.
Composed MMXIX


Technical info
(IMG:http://metalarea.org/images/spectrogram/2020_Oct/f69d8cdbab4c8e9600ac3609b09c5027.png)
Input File: Black Metamorphosis - Myriad Of Dark Forms & Shadow.mp3
Channels : 2
Sample Rate : 44100
Precision : 16-bit
Duration : 00:06:38.06 = 17554446 samples = 29854.5 CDDA sectors
File Size : 15.9M
Bit Rate : 320k
Sample Encoding: MPEG audio (layer I, II or III)



Register


Go to the top of the page
  Insert nick Quick quote
+Quote Post

Причина закрытия (Абигор 11-10-2020): Black Metamorphosis - Black Metamorphosis [demo] (2020)
Closed TopicStart new topic
1 User(s) are reading this topic (1 Guests and 0 Anonymous Users)
0 Members:

 



- Lo-Fi Version Support form
Copyrights and abuse reports form
Time is now: 18th January 2021 - 10:39:27