Welcome Guest ( Log In | Register )

> Правила / Rules

Тут только для чтения лежат низкобитрейтные (<192kbps) релизы, для которых есть аналоги в высокобитрейтных форумах.

Here goes (and stand in read only mode) low bitrate releases (<192kbps) which were already replaced by high bitrate releases in corresponding forums.

Причина закрытия (DarkHorde 12-10-2020): Ventr - Numinous Negativity [ep] (2020)
 
Closed TopicStart new topic
> Ventr - Numinous Negativity [ep] (2020), Black Metal
post Oct 10 2020, 21:00:29
Post #1

Mors in nobis
**
Group: Завсегдатай
Posts: 112
Releases: 59
On Forums: 9 months 4 days
Thanks: 1014 time(s)
Vatican City


(IMG:https://metalarea.org/images/audiocovers/2020_Oct/acov_tid342443_thumb.jpg)

*Artist: Ventr
*Album: Numinous Negativity [ep]
*Year: 2020
*Genre: Black Metal
*Country: Portugal (IMG:https://metalarea.org/forum/style_images/flags/Portugal.png)
*Format: mp3@CBR320kbps
*Size: 57MB

Tracklist:
Side A
1. Omnipresent Abominations 07:26
2. Our Altar of Murderous Fanaticism 07:44
Side B
3. Numinous Negativity 02:18
4. A Dagger to Worship 07:25
******************************
Total playing time: 24:53

Metal Archives
(IMG:https://metalarea.org/images/youtube.png)


Technical info
(IMG:https://metalarea.org/images/spectrogram/2020_Oct/97ddcbb68b036fd627091c95bbe61aa7.png)
Input File: Ventr - Numinous Negativity.mp3
Channels : 2
Sample Rate : 44100
Precision : 16-bit
Duration : 00:02:19.16 = 6136736 samples = 10436.6 CDDA sectors
File Size : 5.57M
Bit Rate : 320k
Sample Encoding: MPEG audio (layer I, II or III)
Comment : 'Tracknumber=3'



Register


Go to the top of the page
  Insert nick Quick quote
+Quote Post

Причина закрытия (DarkHorde 12-10-2020): Ventr - Numinous Negativity [ep] (2020)
Closed TopicStart new topic
1 User(s) are reading this topic (1 Guests and 0 Anonymous Users)
0 Members:

 



- Lo-Fi Version Support form
Copyrights and abuse reports form
Time is now: 28th November 2020 - 14:38:06