Welcome Guest ( Log In | Register )

> Правила / Rules

Тут только для чтения лежат низкобитрейтные (<192kbps) релизы, для которых есть аналоги в высокобитрейтных форумах.

Here goes (and stand in read only mode) low bitrate releases (<192kbps) which were already replaced by high bitrate releases in corresponding forums.

Причина закрытия (Абигор 11-10-2020): Via Sinistra - Silencioso Culto Do Abismo (2020)
 
Closed TopicStart new topic
> Via Sinistra - Silencioso Culto Do Abismo (2020), Raw Black Metal
post Oct 10 2020, 23:38:38
Post #1

Литр
*
Group: Подсевший
Posts: 78
Releases: 31
On Forums: 8 months 2 days
Thanks: 448 time(s)
Vatican City


(IMG:https://metalarea.org/images/audiocovers/2020_Oct/acov_tid342447_thumb.jpg)

*Artist: Via Sinistra
*Album: Silencioso Culto Do Abismo
*Year: 2020
*Genre: Raw Black Metal
*Country: Portugal (IMG:https://metalarea.org/forum/style_images/flags/Portugal.png)
*Format: mp3@CBR320kbps
*Size: 96MB

Tracklist:
1. Anoitece 02:55
2. Despertar De Energias Ocultas 05:20
3. Vislumbre Intemporal 03:20
4. Extase De Lua Cheia 03:47
5. Carrasco 03:16
6. Presencas Ancestrais 02:31
7. Transe Intoxicante 02:25
8. Manto De Trevas 04:03
9. Sombria Manifestacao Das 08:33
10. Profundezas - A Danca Da Foice 06:04
******************************
Total playing time: 42:14

(IMG:https://metalarea.org/images/youtube.png)
Metal Archives

Technical info
(IMG:https://metalarea.org/images/spectrogram/2020_Oct/41be25ab5c872789676a56b247055805.png)
Input File: Via Sinistra - Anoitece.mp3
Channels : 2
Sample Rate : 44100
Precision : 16-bit
Duration : 00:02:55.18 = 7725350 samples = 13138.4 CDDA sectors
File Size : 7.01M
Bit Rate : 320k
Sample Encoding: MPEG audio (layer I, II or III)
Comment : 'Tracknumber=1'



Register


Go to the top of the page
  Insert nick Quick quote
+Quote Post

Причина закрытия (Абигор 11-10-2020): Via Sinistra - Silencioso Culto Do Abismo (2020)
Closed TopicStart new topic
2 User(s) are reading this topic (2 Guests and 0 Anonymous Users)
0 Members:

 



- Lo-Fi Version Support form
Copyrights and abuse reports form
Time is now: 27th October 2020 - 01:35:47