Welcome Guest ( Log In | Register )

 
Reply to this topicStart new topic
> Black Metamorphosis - Black Metamorphosis [demo] (2020), Raw Black Metal
post Oct 11 2020, 16:24:36
Post #1

Правь статус, ####!111
**************
Group: Металариец
Posts: 2,160
Releases: 1721
From: Praha
On Forums: 6 years 9 months
Thanks: 45099 time(s)
Czech Republic


(IMG:http://metalarea.org/images/audiocovers/2020_Oct/acov_tid342478_thumb.jpg)

*Artist: Black Metamorphosis
*Album: Black Metamorphosis [demo]
*Year: 2020
*Genre: Raw Black Metal
*Country: United States (IMG:http://metalarea.org/forum/style_images/flags/United%20States.png)
*Format: mp3@CBR320kbps
*Size: 57MB

Tracklist:
A1. Introduction
A2. A Memory Of That Final Night
A3. The Eternal Dance Of Mourning & Death
A4. Myriad Of Dark Forms & Shadow
A5. Thou Riseth At Night & Dawn
******************************
Total playing time: 23:47

Extended info
Perverse Homage ‎– 069


Technical info
(IMG:http://metalarea.org/images/spectrogram/2020_Oct/63ae3b0686b8acecfb550159f64f8826.png)
Input File: 02. A Memory of That Final Night.mp3
Channels : 2
Sample Rate : 44100
Precision : 16-bit
Duration : 00:04:59.88 = 13224532 samples = 22490.7 CDDA sectors
File Size : 12.3M
Bit Rate : 327k
Sample Encoding: MPEG audio (layer I, II or III)
Comments :
Title=A Memory of That Final Night
Artist=Black Metamorphosis
Album=Black Metamorphosis
Tracknumber=02/05
Year=2020
Genre=Black metal



Register


Go to the top of the page
  Insert nick Quick quote
+Quote Post

Reply to this topicStart new topic
1 User(s) are reading this topic (1 Guests and 0 Anonymous Users)
0 Members:

 



- Lo-Fi Version Support form
Copyrights and abuse reports form
Time is now: 18th January 2021 - 05:54:59