Welcome Guest ( Log In | Register )

> Releases Upload / Добавление релизов

Добавить релиз тут / Click here to add release
Рекомендованные обменники / Recommended file shares

 
Reply to this topicStart new topic
> Via Sinistra - Silencioso Culto Do Abismo (2020), Raw Black Metal
post Oct 11 2020, 16:38:03
Post #1

Правь статус, ####!111
**************
Group: Металариец
Posts: 2,128
Releases: 1690
From: Praha
On Forums: 6 years 7 months
Thanks: 44040 time(s)
Czech Republic


(IMG:http://metalarea.org/images/audiocovers/2020_Oct/acov_tid342479_thumb.jpg)

*Artist: Via Sinistra
*Album: Silencioso Culto Do Abismo
*Year: 2020
*Genre: Raw Black Metal
*Country: Portugal (IMG:http://metalarea.org/forum/style_images/flags/Portugal.png)
*Format: mp3@CBR320kbps
*Size: 100MB

Tracklist:
A1. Anoitece
A2. Despertar De Energías Ocultas
A3. Vislumbre Intemporal
A4. Extase De Lua Cheia
A5. Carrasco
B1. Presenças Ancestrais
B2. Transe Intoxicante
B3. Manto De Trevas
B4. Sombria Manifestação Das
B5. Profundezas - A Dança Da Foice
******************************
Total playing time: 42:15

Extended info
Perverse Homage ‎– 071


Technical info
(IMG:http://metalarea.org/images/spectrogram/2020_Oct/41fe2b0306b39d16d0a6c66f613b1af0.png)
Input File: 03. Vislumbre Intemporal.mp3
Channels : 2
Sample Rate : 48000
Precision : 16-bit
Duration : 00:03:21.94 = 9692928 samples ~ 15145.2 CDDA sectors
File Size : 8.35M
Bit Rate : 331k
Sample Encoding: MPEG audio (layer I, II or III)
Comments :
Title=Vislumbre Intemporal
Artist=Via Sinistra
Album=Silencioso Culto Do Abismo
Tracknumber=03/10
Year=2020
Genre=Black Metal



Register


Go to the top of the page
  Insert nick Quick quote
+Quote Post

Reply to this topicStart new topic
1 User(s) are reading this topic (1 Guests and 0 Anonymous Users)
0 Members:

 



- Lo-Fi Version Support form
Copyrights and abuse reports form
Time is now: 28th November 2020 - 14:19:46