Welcome Guest ( Log In | Register )

 
Reply to this topicStart new topic
> Via Sinistra - Silencioso Culto Do Abismo (2020), Raw Black Metal
post Oct 11 2020, 16:38:03
Post #1

Правь статус, ####!111
**************
Group: Металариец
Posts: 2,277
Releases: 1830
From: Praha
On Forums: 7 years 2 months
Thanks: 48327 time(s)
Czech Republic


(IMG:http://metalarea.org/images/audiocovers/2020_Dec/acov_uid146177_742f9ab27f94dc85b4341fa309441f7a_thumb.jpg)

*Artist: Via Sinistra
*Album: Silencioso Culto Do Abismo
*Year: 2020
*Genre: Raw Black Metal
*Country: Portugal (IMG:http://metalarea.org/forum/style_images/flags/Portugal.png)
*Format: mp3@CBR320kbps
*Size: 100MB

Tracklist:
A1. Anoitece
A2. Despertar De Energías Ocultas
A3. Vislumbre Intemporal
A4. Extase De Lua Cheia
A5. Carrasco
B1. Presenças Ancestrais
B2. Transe Intoxicante
B3. Manto De Trevas
B4. Sombria Manifestação Das
B5. Profundezas - A Dança Da Foice
******************************
Total playing time: 42:15

Extended info
Perverse Homage ‎– 071, tape.
Altare Productions, 12'' LP.


Technical info
(IMG:http://metalarea.org/images/spectrogram/2020_Dec/c0d91536bf34c49708a767b55372cf7e.png)
Input File: 02. Despertar De Energías Ocultas.mp3
Channels : 2
Sample Rate : 44100
Precision : 16-bit
Duration : 00:05:17.63 = 14007527 samples = 23822.3 CDDA sectors
File Size : 12.7M
Bit Rate : 321k
Sample Encoding: MPEG audio (layer I, II or III)
Comments :
Title=Despertar De Energías Ocultas
Artist=Via Sinistra
Album=Silencioso Culto Do Abismo
Tracknumber=02/10
Year=2020
Genre=Black Metal



Register


Go to the top of the page
  Insert nick Quick quote
+Quote Post

Reply to this topicStart new topic
1 User(s) are reading this topic (1 Guests and 0 Anonymous Users)
0 Members:

 



- Lo-Fi Version Support form
Copyrights and abuse reports form
Time is now: 15th June 2021 - 13:20:50